<?xml version="1.0" standalone="no"?> 
<!DOCTYPE svg PUBLIC "-//W3C//DTD SVG 1.1//EN" "http://www.w3.org/Graphics/SVG/1.1/DTD/svg11.dtd" >
<svg xmlns="http://www.w3.org/2000/svg">
<defs>
  <font id="rsuite-icon-font" horiz-adv-x="49">
    <font-face font-family="rsuite-icon-font"
      units-per-em="1000" ascent="857"
      descent="143" />
    <missing-glyph horiz-adv-x="0" />
    <glyph glyph-name="weapp"
      unicode="&#xEA01;"
      horiz-adv-x="1000" d=" M500 857C221.4285714285715 857 0 635.5714285714286 0 357C0 78.4285714285713 221.4285714285715 -143 500 -143C778.5714285714287 -143 1000 78.4285714285713 1000 357C1000 635.5714285714286 778.5714285714287 857 500 857zM792.8571428571429 399.8571428571429C771.4285714285713 364.1428571428571 735.7142857142857 335.5714285714286 692.8571428571428 321.2857142857142C692.8571428571428 321.2857142857142 692.8571428571428 321.2857142857142 692.8571428571428 321.2857142857142C685.7142857142857 321.2857142857142 678.5714285714286 321.2857142857142 671.4285714285713 321.2857142857142C642.8571428571428 321.2857142857142 621.4285714285714 342.7142857142857 635.7142857142857 364.1428571428571C642.8571428571428 385.5714285714285 657.1428571428571 399.8571428571429 678.5714285714284 407C714.2857142857142 421.2857142857142 735.7142857142857 449.8571428571428 735.7142857142857 478.4285714285714C735.7142857142857 521.2857142857142 692.8571428571428 557 642.8571428571428 557C592.8571428571428 557 549.9999999999999 521.2857142857142 549.9999999999999 478.4285714285714V235.5714285714285C549.9999999999999 178.4285714285713 514.2857142857142 128.4285714285713 464.2857142857142 99.8571428571428C428.5714285714286 78.4285714285713 400 71.2857142857142 364.2857142857143 71.2857142857142C264.2857142857143 71.2857142857142 185.7142857142857 142.7142857142857 185.7142857142857 235.5714285714286C185.7142857142857 264.1428571428572 192.8571428571428 292.7142857142858 207.1428571428571 314.1428571428571C228.5714285714286 349.8571428571429 264.2857142857142 378.4285714285715 307.1428571428571 392.7142857142857C307.1428571428571 392.7142857142857 307.1428571428571 392.7142857142857 307.1428571428571 392.7142857142857C314.2857142857142 392.7142857142857 321.4285714285714 399.8571428571429 328.5714285714285 399.8571428571429C357.1428571428571 399.8571428571429 378.5714285714285 378.4285714285714 364.2857142857142 357C364.2857142857143 328.4285714285715 350.0000000000001 314.1428571428571 328.5714285714286 307C328.5714285714286 307 321.4285714285715 307 321.4285714285715 307C285.7142857142857 292.7142857142857 264.2857142857143 264.1428571428571 264.2857142857143 235.5714285714286C264.2857142857143 192.7142857142858 307.1428571428572 157 357.1428571428572 157C407.1428571428572 157 450 192.7142857142858 450 235.5714285714286V478.4285714285714C450 535.5714285714286 485.7142857142857 585.5714285714286 535.7142857142858 614.1428571428571C571.4285714285714 635.5714285714286 600 642.7142857142858 635.7142857142858 642.7142857142858C735.7142857142858 642.7142857142858 814.2857142857143 571.2857142857142 814.2857142857143 478.4285714285714C814.2857142857143 449.8571428571429 807.1428571428572 421.2857142857143 792.8571428571429 399.8571428571429z" />
    <glyph glyph-name="web"
      unicode="&#xEA02;"
      horiz-adv-x="1000" d=" M900 57V506.9999999999999H700.0000000000001V57H900zM650 307V506.9999999999999H100V307H650zM650 57V257H100V57H650zM900 757C957.1428571428572 757 1000 714.1428571428571 1000 657V57C1000 -0.1428571428571 957.1428571428572 -43 900 -43H100C42.8571428571429 -43 0 -0.1428571428571 0 57V657C0 714.1428571428571 42.8571428571429 757 100 757H900z" />
    <glyph glyph-name="target"
      unicode="&#xEA03;"
      horiz-adv-x="1000" d=" M1000 378.4285714285714H935.7142857142856C928.5714285714286 599.8571428571429 742.8571428571429 785.5714285714286 521.4285714285714 792.7142857142857V857H478.5714285714286V792.7142857142857C257.1428571428572 785.5714285714286 71.4285714285714 599.8571428571429 64.2857142857143 378.4285714285714H0V342.7142857142857H64.2857142857143C71.4285714285714 114.1428571428571 257.1428571428572 -71.5714285714285 478.5714285714286 -78.7142857142857V-143H514.2857142857143V-78.7142857142857C742.8571428571429 -71.5714285714285 921.4285714285714 114.1428571428572 935.7142857142858 342.7142857142858H1000V378.4285714285714zM878.5714285714287 378.4285714285714H728.5714285714287C721.4285714285716 492.7142857142857 628.5714285714287 585.5714285714286 514.2857142857143 592.7142857142858V735.5714285714286C714.2857142857143 728.4285714285714 871.4285714285714 571.2857142857142 878.5714285714287 378.4285714285714zM642.8571428571429 335.5714285714286C635.7142857142858 271.2857142857144 585.7142857142857 221.2857142857142 521.4285714285714 214.1428571428571V228.4285714285714H478.5714285714286V214.1428571428571C414.2857142857143 221.2857142857142 364.2857142857143 271.2857142857144 357.1428571428572 335.5714285714286H371.4285714285715V378.4285714285714H357.1428571428572C364.2857142857143 442.7142857142857 414.2857142857143 492.7142857142857 478.5714285714286 499.8571428571428V485.5714285714286H514.2857142857143V499.8571428571428C585.7142857142857 492.7142857142857 635.7142857142858 442.7142857142857 642.8571428571429 378.4285714285714H628.5714285714287V342.7142857142857H642.8571428571429zM478.5714285714286 735.5714285714286V585.5714285714286C364.2857142857143 578.4285714285714 271.4285714285715 485.5714285714286 264.2857142857143 371.2857142857143H121.4285714285714C128.5714285714286 571.2857142857142 285.7142857142857 728.4285714285714 478.5714285714286 735.5714285714286zM121.4285714285714 335.5714285714286H271.4285714285715C278.5714285714286 221.2857142857142 371.4285714285714 128.4285714285715 485.7142857142857 121.2857142857142V-28.7142857142858C285.7142857142857 -14.4285714285714 128.5714285714286 142.7142857142857 121.4285714285714 335.5714285714286zM521.4285714285714 -21.5714285714287V128.4285714285713C635.7142857142858 135.5714285714285 728.5714285714286 228.4285714285714 735.7142857142858 342.7142857142857H885.7142857142858C871.4285714285714 142.7142857142857 714.2857142857143 -14.4285714285714 521.4285714285714 -21.5714285714287z" />
    <glyph glyph-name="bar-chart-ranking"
      unicode="&#xEA04;"
      horiz-adv-x="1000" d=" M0 -78.71875H1000V-143H0V-78.71875zM750 357H935.7187499999998V42.7187499999999H750V357zM0 857H185.71875V42.71875H0V857zM250 607H435.71875V42.71875H250V607zM500 478.4375H685.7187499999999V42.7187499999999H500V478.4375z" />
    <glyph glyph-name="multiple-lines-chart"
      unicode="&#xEA05;"
      horiz-adv-x="1000" d=" M64.2857142857143 -78.7142857142857V857H0V-143H1000V-78.7142857142857z M178.5714285714286 64.1428571428571C171.4285714285714 64.1428571428571 164.2857142857143 64.1428571428571 157.1428571428572 71.2857142857142C142.8571428571429 85.5714285714286 142.8571428571429 99.8571428571429 157.1428571428572 114.1428571428571L335.7142857142857 292.7142857142857L471.4285714285714 199.8571428571428L871.4285714285714 649.8571428571428C885.7142857142857 664.1428571428571 900 664.1428571428571 914.2857142857142 649.8571428571428C928.5714285714284 635.5714285714284 928.5714285714284 621.2857142857142 914.2857142857142 606.9999999999999L478.5714285714286 121.2857142857142L342.8571428571429 214.1428571428571L200 71.2857142857142C192.8571428571428 64.1428571428571 185.7142857142857 64.1428571428571 178.5714285714286 64.1428571428571z M892.8571428571429 178.4285714285715C885.7142857142858 178.4285714285715 878.5714285714287 178.4285714285715 871.4285714285714 185.5714285714286L535.7142857142858 535.5714285714286L428.5714285714286 442.7142857142857L321.4285714285715 564.1428571428571L178.5714285714286 435.5714285714286C164.2857142857143 428.4285714285715 150 428.4285714285715 135.7142857142857 442.7142857142857C121.4285714285714 457 128.5714285714286 478.4285714285714 135.7142857142857 485.5714285714286L321.4285714285715 649.8571428571429L435.7142857142857 528.4285714285713L542.8571428571429 621.2857142857142L914.2857142857144 228.4285714285714C928.5714285714286 214.1428571428571 928.5714285714286 192.7142857142857 914.2857142857144 185.5714285714286C907.1428571428572 185.5714285714286 900.0000000000001 178.4285714285715 892.8571428571429 178.4285714285715z" />
    <glyph glyph-name="alipay"
      unicode="&#xEA06;"
      horiz-adv-x="1000" d=" M457.1428571428572 214.1428571428571C378.5714285714286 249.8571428571429 307.1428571428572 299.8571428571429 221.4285714285715 299.8571428571429C185.7142857142857 299.8571428571429 157.1428571428572 299.8571428571429 121.4285714285715 278.4285714285715C71.4285714285714 257 42.8571428571429 228.4285714285714 35.7142857142857 178.4285714285715C28.5714285714286 135.5714285714286 71.4285714285714 78.4285714285713 107.1428571428571 64.1428571428571C114.2857142857143 64.1428571428571 121.4285714285714 49.8571428571429 164.2857142857143 49.8571428571429C285.7142857142857 35.5714285714286 400 107 457.1428571428572 214.1428571428571zM1000 -50.1428571428571C921.4285714285714 -14.4285714285714 842.8571428571429 21.2857142857143 764.2857142857142 64.1428571428571C714.2857142857143 85.5714285714286 557.1428571428571 164.1428571428572 557.1428571428571 164.1428571428572S542.8571428571429 149.8571428571429 528.5714285714286 135.5714285714286C450 42.7142857142857 371.4285714285714 -7.2857142857143 257.1428571428571 -28.7142857142857C207.1428571428571 -35.8571428571428 171.4285714285714 -28.7142857142857 114.2857142857143 -7.2857142857141C50 7 0 71.2857142857142 0 149.8571428571428C0 235.5714285714285 35.7142857142857 307 100 342.7142857142857C171.4285714285714 385.5714285714285 264.2857142857143 371.2857142857143 342.8571428571429 349.8571428571429C392.8571428571429 335.5714285714286 521.4285714285714 299.8571428571428 521.4285714285714 299.8571428571428S542.8571428571429 364.1428571428571 550 378.4285714285714C557.1428571428571 392.7142857142857 578.5714285714286 449.8571428571428 578.5714285714286 449.8571428571428H171.4285714285714V499.8571428571428H385.7142857142857V578.4285714285714H128.5714285714286V628.4285714285714H385.7142857142857C385.7142857142857 628.4285714285714 385.7142857142857 671.2857142857142 385.7142857142857 764.1428571428571L500 764.1428571428571V621.2857142857142H757.1428571428571V571.2857142857142H500V499.8571428571428C500 499.8571428571428 714.2857142857143 499.8571428571428 714.2857142857143 499.8571428571428C692.8571428571428 414.1428571428571 657.1428571428571 342.7142857142857 628.5714285714287 264.1428571428571C742.8571428571429 206.9999999999999 878.5714285714287 164.142857142857 1000 128.4285714285713V-50.1428571428571z" />
    <glyph glyph-name="tmall"
      unicode="&#xEA07;"
      horiz-adv-x="1000" d=" M0 549.8571428571429C0 614.1428571428571 28.5714285714286 649.8571428571429 85.7142857142857 649.8571428571429C171.4285714285714 649.8571428571429 214.2857142857143 485.5714285714286 292.8571428571429 485.5714285714286C207.1428571428571 485.5714285714286 628.5714285714287 485.5714285714286 707.1428571428571 485.5714285714286S835.7142857142857 649.8571428571429 914.2857142857142 649.8571428571429C971.4285714285714 649.8571428571429 992.8571428571428 614.1428571428571 999.9999999999998 549.8571428571429V149.8571428571429C999.9999999999998 107.0000000000001 964.2857142857142 64.1428571428572 914.2857142857142 64.1428571428572H85.7142857142857C35.7142857142857 64.1428571428571 0 99.8571428571429 0 149.8571428571428V549.8571428571429z" />
    <glyph glyph-name="arrow-down-line"
      unicode="&#xEA08;"
      horiz-adv-x="714.2857142857143" d=" M357.1428571428572 178.4285714285715C338.8571428571429 178.4285714285715 320.5714285714286 185.4285714285715 306.6428571428572 199.3571428571428L92.3571428571429 413.6428571428571C64.4285714285715 441.5714285714285 64.4285714285715 486.7857142857142 92.3571428571429 514.6428571428571S165.5 542.5714285714284 193.3571428571429 514.6428571428571L357.1428571428572 350.8571428571428L520.9285714285714 514.6428571428571C548.8571428571429 542.5714285714284 594.0714285714286 542.5714285714284 621.9285714285714 514.6428571428571S649.8571428571429 441.4999999999999 621.9285714285714 413.6428571428571L407.6428571428572 199.3571428571428C393.7142857142858 185.4285714285713 375.4285714285715 178.4285714285715 357.1428571428572 178.4285714285715z" />
    <glyph glyph-name="arrow-down"
      unicode="&#xEA09;"
      horiz-adv-x="1000" d=" M0 607L500 107L1000 607z" />
    <glyph glyph-name="arrow-left-line"
      unicode="&#xEA0A;"
      horiz-adv-x="500" d=" M71.4285714285714 357C71.4285714285714 375.2857142857143 78.4285714285714 393.5714285714286 92.3571428571429 407.5L306.6428571428572 621.7857142857142C334.5714285714286 649.7142857142857 379.7857142857144 649.7142857142857 407.6428571428572 621.7857142857142S435.5714285714286 548.6428571428571 407.6428571428572 520.7857142857142L243.8571428571429 357L407.6428571428572 193.2142857142858C435.5714285714286 165.2857142857143 435.5714285714286 120.0714285714286 407.6428571428572 92.2142857142858S334.5 64.2857142857143 306.6428571428572 92.2142857142858L92.3571428571429 306.5000000000001C78.4285714285714 320.4285714285716 71.4285714285715 338.7142857142858 71.4285714285715 357.0000000000001z" />
    <glyph glyph-name="more"
      unicode="&#xEA0B;"
      horiz-adv-x="857.1428571428571" d=" M142.8571428571429 428.4285714285715C161.5714285714286 428.4285714285715 179.1428571428572 421.4285714285715 193.2142857142857 407.5S214.2857142857143 377.2857142857143 214.2857142857143 356.4285714285714C214.2857142857143 336.7142857142857 207.2857142857143 320.4285714285714 193.2142857142857 306.5S161.5714285714286 285.5714285714286 142.8571428571429 285.5714285714286C121.7857142857143 285.5714285714286 105.3571428571429 292.5714285714286 92.5 306.5C78.4285714285714 320.4285714285715 71.4285714285714 336.7142857142857 71.4285714285714 356.4285714285714C71.4285714285714 377.3571428571429 78.4285714285714 393.5714285714286 92.5 407.5C105.3571428571429 421.4285714285715 121.7857142857143 428.4285714285715 142.8571428571429 428.4285714285715zM428.5714285714286 428.4285714285715C447.2857142857144 428.4285714285715 464.8571428571429 421.4285714285715 478.9285714285714 407.5S500 377.2857142857143 500 356.4285714285714C500 336.7142857142857 493 320.4285714285714 478.9285714285714 306.5S447.2857142857144 285.5714285714286 428.5714285714286 285.5714285714286C407.5 285.5714285714286 391.0714285714286 292.5714285714286 378.2142857142857 306.5C364.1428571428572 320.4285714285715 357.1428571428572 336.7142857142857 357.1428571428572 356.4285714285714C357.1428571428572 377.3571428571429 364.1428571428572 393.5714285714286 378.2142857142857 407.5C391.0714285714286 421.4285714285715 407.5 428.4285714285715 428.5714285714286 428.4285714285715zM714.2857142857143 428.4285714285715C733 428.4285714285715 750.5714285714286 421.4285714285715 764.6428571428572 407.5S785.7142857142858 377.2857142857143 785.7142857142858 356.4285714285714C785.7142857142858 336.7142857142857 778.7142857142857 320.4285714285714 764.6428571428572 306.5S733 285.5714285714286 714.2857142857143 285.5714285714286C693.2142857142858 285.5714285714286 676.7857142857143 292.5714285714286 663.9285714285714 306.5C649.8571428571429 320.4285714285715 642.8571428571429 336.7142857142857 642.8571428571429 356.4285714285714C642.8571428571429 377.3571428571429 649.8571428571429 393.5714285714286 663.9285714285714 407.5C676.7857142857143 421.4285714285715 693.2142857142858 428.4285714285715 714.2857142857143 428.4285714285715z" />
    <glyph glyph-name="arrow-right-line"
      unicode="&#xEA0C;"
      horiz-adv-x="500" d=" M428.5714285714286 357C428.5714285714286 338.7142857142857 421.5714285714286 320.4285714285714 407.6428571428572 306.5L193.3571428571429 92.2142857142857C165.4285714285714 64.2857142857142 120.2142857142857 64.2857142857142 92.3571428571429 92.2142857142857S64.4285714285714 165.3571428571429 92.3571428571429 193.2142857142857L256.1428571428572 357L92.3571428571429 520.7857142857142C64.4285714285715 548.7142857142857 64.4285714285715 593.9285714285713 92.3571428571429 621.7857142857142S165.5 649.7142857142857 193.3571428571429 621.7857142857142L407.6428571428572 407.4999999999999C421.5714285714286 393.5714285714285 428.5714285714286 375.2857142857142 428.5714285714286 357z" />
    <glyph glyph-name="arrow-up-line"
      unicode="&#xEA0E;"
      horiz-adv-x="714.2857142857143" d=" M357.1428571428572 535.5714285714286C375.4285714285715 535.5714285714286 393.7142857142858 528.5714285714286 407.6428571428572 514.6428571428571L621.9285714285714 300.3571428571428C649.8571428571429 272.4285714285714 649.8571428571429 227.2142857142857 621.9285714285714 199.3571428571428S548.7857142857143 171.4285714285713 520.9285714285716 199.3571428571428L357.1428571428572 363.1428571428571L193.3571428571429 199.3571428571428C165.4285714285715 171.4285714285713 120.2142857142858 171.4285714285713 92.3571428571429 199.3571428571428S64.4285714285715 272.5 92.3571428571429 300.3571428571428L306.6428571428572 514.6428571428571C320.5714285714287 528.5714285714284 338.8571428571429 535.5714285714284 357.1428571428572 535.5714285714284z" />
    <glyph glyph-name="attachment"
      unicode="&#xEA10;"
      horiz-adv-x="1000" d=" M562.5 669.5C562.5 738.5 506.5 794.5 437.5 794.5S312.5 738.5 312.5 669.5V107C312.5 3.4285714285714 396.4285714285715 -80.5 500 -80.5S687.5 3.4285714285714 687.5 107V544.5H750V107C750 -31.0714285714286 638.0714285714286 -143 500 -143S250 -31.0714285714286 250 107V669.5C250 773.0714285714286 333.9285714285715 857 437.5 857S625 773.0714285714286 625 669.5V169.5C625 100.5 569 44.5 500 44.5S375 100.5 375 169.5V544.5H437.5V169.5C437.5 134.9999999999999 465.5000000000001 107 500 107S562.5 134.9999999999999 562.5 169.5V669.5z" />
    <glyph glyph-name="check-circle"
      unicode="&#xEA11;"
      horiz-adv-x="1000" d=" M500 -143C223.8571428571429 -143 0 80.8571428571429 0 357S223.8571428571429 857 500 857C776.1428571428571 857 1000 633.1428571428571 1000 357S776.1428571428571 -143 500 -143zM417.7142857142857 306.8571428571429L310.1428571428571 414.4285714285715C277.5714285714286 447.0000000000001 224.8571428571428 447.0000000000001 192.2857142857143 414.4285714285715S159.7142857142857 329.1428571428571 192.2857142857143 296.5714285714286L358.9285714285715 129.9285714285715C391.5000000000001 97.3571428571429 444.2142857142857 97.3571428571429 476.7857142857143 129.9285714285715C478.2142857142857 131.3571428571428 479.5714285714286 132.7857142857142 480.8571428571429 134.2857142857142L810.1428571428573 463.5714285714286C842.7142857142859 496.1428571428572 842.7142857142859 548.8571428571429 810.1428571428573 581.4285714285713S724.8571428571431 614 692.2857142857144 581.4285714285713L417.7142857142859 306.8571428571429z" />
    <glyph glyph-name="collasped-o"
      unicode="&#xEA14;"
      horiz-adv-x="1000" d=" M214.2857142857143 785.5714285714286C135.3571428571429 785.5714285714286 71.4285714285714 721.6428571428571 71.4285714285714 642.7142857142858V71.2857142857142C71.4285714285714 -7.6428571428572 135.3571428571429 -71.5714285714285 214.2857142857143 -71.5714285714285H785.7142857142858C864.6428571428572 -71.5714285714285 928.5714285714286 -7.6428571428572 928.5714285714286 71.2857142857142V642.7142857142858C928.5714285714286 721.6428571428571 864.6428571428572 785.5714285714286 785.7142857142858 785.5714285714286H214.2857142857143zM214.2857142857143 857H785.7142857142858C904.0714285714286 857 1000 761.0714285714286 1000 642.7142857142858V71.2857142857142C1000 -47.0714285714286 904.0714285714286 -143 785.7142857142858 -143H214.2857142857143C95.9285714285714 -143 0 -47.0714285714286 0 71.2857142857142V642.7142857142858C0 761.0714285714286 95.9285714285714 857 214.2857142857143 857z M250 321.2857142857142C230.2857142857143 321.2857142857142 214.2857142857143 337.2857142857144 214.2857142857143 357S230.2857142857143 392.7142857142857 250 392.7142857142857H750C769.7142857142857 392.7142857142857 785.7142857142858 376.7142857142857 785.7142857142858 357S769.7142857142857 321.2857142857142 750 321.2857142857142H250z" />
    <glyph glyph-name="collasped"
      unicode="&#xEA15;"
      horiz-adv-x="1000" d=" M214.2857142857143 857H785.7142857142858C904.0714285714286 857 1000 761.0714285714286 1000 642.7142857142858V71.2857142857142C1000 -47.0714285714286 904.0714285714286 -143 785.7142857142858 -143H214.2857142857143C95.9285714285714 -143 0 -47.0714285714286 0 71.2857142857142V642.7142857142858C0 761.0714285714286 95.9285714285714 857 214.2857142857143 857zM750 419.5H250C215.5 419.5 187.5 391.5 187.5 357S215.5 294.5 250 294.5H750C784.5000000000001 294.5 812.5 322.5 812.5 357S784.5000000000001 419.5 750 419.5z" />
    <glyph glyph-name="copy-o"
      unicode="&#xEA16;"
      horiz-adv-x="1000" d=" M928.5714285714286 571.2857142857142H714.2857142857143V785.5714285714286H428.5714285714286C400.3571428571429 785.5714285714286 357.1428571428572 742.7857142857142 357.1428571428572 714.1428571428571H285.7142857142857C285.7142857142857 783.1428571428571 361.7857142857143 857 428.5714285714286 857H785.7142857142858L1000 642.7142857142858V142.7142857142857C1000 73.7142857142858 923.9285714285714 -0.1428571428571 857.1428571428571 -0.1428571428571H642.8571428571429L702.3571428571429 71.2857142857142H857.1428571428571C885.3571428571429 71.2857142857142 928.5714285714286 114.0714285714286 928.5714285714286 142.7142857142857V571.2857142857142zM899 642.7142857142858L785.7142857142858 756V642.7142857142858H899z M470.4285714285714 642.7142857142858L663.7857142857142 449.3571428571429L714.2857142857143 499.8571428571428L500 714.1428571428571H142.8571428571429C76.0714285714286 714.1428571428571 0 640.3571428571429 0 571.2857142857142V-0.1428571428571C0 -69.1428571428571 76.0714285714286 -143 142.8571428571429 -143H571.4285714285714C638.2142857142858 -143 714.2857142857143 -69.2142857142858 714.2857142857143 -0.1428571428571V276.6428571428571H642.8571428571429V-0.1428571428571C642.8571428571429 -28.7857142857143 599.6428571428571 -71.5714285714285 571.4285714285714 -71.5714285714285H142.8571428571429C114.6428571428572 -71.5714285714285 71.4285714285714 -28.7857142857143 71.4285714285714 -0.1428571428571V571.2857142857142C71.4285714285714 599.9285714285713 114.6428571428572 642.7142857142858 142.8571428571429 642.7142857142858H470.4285714285714zM470.4285714285714 642.7142857142858L663.7857142857142 449.3571428571429L714.2857142857143 499.8571428571428L500 714.1428571428571H142.8571428571429C76.0714285714286 714.1428571428571 0 640.3571428571429 0 571.2857142857142V-0.1428571428571C0 -69.1428571428571 76.0714285714286 -143 142.8571428571429 -143H571.4285714285714C638.2142857142858 -143 714.2857142857143 -69.2142857142858 714.2857142857143 -0.1428571428571V276.6428571428571H642.8571428571429V-0.1428571428571C642.8571428571429 -28.7857142857143 599.6428571428571 -71.5714285714285 571.4285714285714 -71.5714285714285H142.8571428571429C114.6428571428572 -71.5714285714285 71.4285714285714 -28.7857142857143 71.4285714285714 -0.1428571428571V571.2857142857142C71.4285714285714 599.9285714285713 114.6428571428572 642.7142857142858 142.8571428571429 642.7142857142858H470.4285714285714zM500 499.8571428571428H714.2857142857143V428.4285714285715H428.5714285714286V714.1428571428571H500V499.8571428571428z" />
    <glyph glyph-name="expand-o"
      unicode="&#xEA17;"
      horiz-adv-x="1000" d=" M214.2857142857143 785.5714285714286C135.3571428571429 785.5714285714286 71.4285714285714 721.6428571428571 71.4285714285714 642.7142857142858V71.2857142857142C71.4285714285714 -7.6428571428572 135.3571428571429 -71.5714285714285 214.2857142857143 -71.5714285714285H785.7142857142858C864.6428571428572 -71.5714285714285 928.5714285714286 -7.6428571428572 928.5714285714286 71.2857142857142V642.7142857142858C928.5714285714286 721.6428571428571 864.6428571428572 785.5714285714286 785.7142857142858 785.5714285714286H214.2857142857143zM214.2857142857143 857H785.7142857142858C904.0714285714286 857 1000 761.0714285714286 1000 642.7142857142858V71.2857142857142C1000 -47.0714285714286 904.0714285714286 -143 785.7142857142858 -143H214.2857142857143C95.9285714285714 -143 0 -47.0714285714286 0 71.2857142857142V642.7142857142858C0 761.0714285714286 95.9285714285714 857 214.2857142857143 857z M464.2857142857143 392.7142857142857V607C464.2857142857143 626.7142857142857 480.2857142857143 642.7142857142858 500 642.7142857142858S535.7142857142858 626.7142857142857 535.7142857142858 607V392.7142857142857H750C769.7142857142857 392.7142857142857 785.7142857142858 376.7142857142857 785.7142857142858 357S769.7142857142857 321.2857142857142 750 321.2857142857142H535.7142857142858V107C535.7142857142858 87.2857142857143 519.7142857142857 71.2857142857142 500 71.2857142857142S464.2857142857143 87.2857142857143 464.2857142857143 107V321.2857142857142H250C230.2857142857143 321.2857142857142 214.2857142857143 337.2857142857144 214.2857142857143 357S230.2857142857143 392.7142857142857 250 392.7142857142857H464.2857142857143z" />
    <glyph glyph-name="help-o"
      unicode="&#xEA18;"
      horiz-adv-x="1000" d=" M500 -59.6428571428572C730.1428571428571 -59.6428571428572 916.6428571428572 126.9285714285715 916.6428571428572 357S730.0714285714286 773.6428571428571 500 773.6428571428571C269.8571428571429 773.6428571428571 83.3571428571429 587.0714285714286 83.3571428571429 357S269.9285714285715 -59.6428571428572 500 -59.6428571428572zM500 -143C223.8571428571429 -143 0 80.8571428571429 0 357S223.8571428571429 857 500 857C776.1428571428571 857 1000 633.1428571428571 1000 357S776.1428571428571 -143 500 -143zM500 23.6428571428571C546 23.6428571428571 583.3571428571429 60.9285714285715 583.3571428571429 107S546.0714285714286 190.3571428571428 500 190.3571428571428C454 190.3571428571428 416.6428571428572 153.0714285714286 416.6428571428572 107S453.9285714285714 23.6428571428571 500 23.6428571428571zM541.6428571428572 273.6428571428571V328.0714285714286C622.2142857142858 361.6428571428572 666.6428571428572 413.0000000000001 666.6428571428572 482C666.6428571428572 588.3571428571429 606.3571428571429 648.6428571428571 500 648.6428571428571C395.1428571428572 648.6428571428571 333.3571428571429 585.0714285714286 333.3571428571429 482C333.3571428571429 459 352 440.3571428571429 375 440.3571428571429S416.6428571428572 459 416.6428571428572 482C416.6428571428572 539.5714285714286 441.6428571428572 565.3571428571429 500 565.3571428571429C560.2857142857143 565.3571428571429 583.3571428571429 542.3571428571429 583.3571428571429 482C583.3571428571429 447.6428571428572 555 419.2142857142857 486.8571428571428 396.5C469.8571428571428 390.8571428571429 458.3571428571428 374.9285714285715 458.3571428571428 357V273.6428571428571C458.3571428571428 250.6428571428572 477 232 500 232S541.6428571428572 250.6428571428571 541.6428571428572 273.6428571428571z" />
    <glyph glyph-name="info"
      unicode="&#xEA19;"
      horiz-adv-x="1000" d=" M500 -143C223.8571428571429 -143 0 80.8571428571429 0 357S223.8571428571429 857 500 857C776.1428571428571 857 1000 633.1428571428571 1000 357S776.1428571428571 -143 500 -143zM500 523.6428571428571C546 523.6428571428571 583.3571428571429 560.9285714285714 583.3571428571429 607S546.0714285714286 690.3571428571429 500 690.3571428571429C454 690.3571428571429 416.6428571428572 653.0714285714286 416.6428571428572 607S453.9285714285714 523.6428571428571 500 523.6428571428571zM500 440.3571428571429C454 440.3571428571429 416.6428571428572 403.0714285714286 416.6428571428572 357V107C416.6428571428572 61 453.9285714285714 23.6428571428571 500 23.6428571428571S583.3571428571429 60.9285714285715 583.3571428571429 107V357C583.3571428571429 403 546.0714285714286 440.3571428571429 500 440.3571428571429z" />
    <glyph glyph-name="page-end"
      unicode="&#xEA1A;"
      horiz-adv-x="642.8571428571429" d=" M321.4285714285715 357L71.4285714285714 642.7142857142858L113.0714285714286 690.3571428571429L404.7142857142858 357L113.0714285714286 23.6428571428571L71.4285714285715 71.2857142857142L321.4285714285715 357zM488.0714285714286 357L238.0714285714286 642.7142857142858L279.7142857142857 690.3571428571429L571.3571428571429 357L279.7142857142857 23.6428571428571L238.0714285714286 71.2857142857142L488.0714285714286 357z" />
    <glyph glyph-name="page-next"
      unicode="&#xEA1B;"
      horiz-adv-x="500" d=" M333.3571428571429 357L83.3571428571429 71.2857142857142L125 23.6428571428571L416.6428571428572 357L125 690.3571428571429L83.3571428571429 642.7142857142858z" />
    <glyph glyph-name="page-previous"
      unicode="&#xEA1C;"
      horiz-adv-x="500" d=" M166.6428571428572 357L416.6428571428572 642.7142857142858L375 690.3571428571429L83.3571428571429 357L375 23.6428571428571L416.6428571428572 71.2857142857142z" />
    <glyph glyph-name="page-top"
      unicode="&#xEA1D;"
      horiz-adv-x="642.8571428571429" d=" M321.4285714285715 357L571.4285714285714 71.2857142857142L529.7857142857143 23.6428571428571L238.1428571428571 357L529.7857142857143 690.3571428571429L571.4285714285714 642.7142857142858L321.4285714285715 357zM154.7857142857143 357L404.7857142857143 71.2857142857142L363.1428571428571 23.6428571428571L71.5 357L363.1428571428571 690.3571428571429L404.7857142857143 642.7142857142858L154.7857142857143 357z" />
    <glyph glyph-name="reload"
      unicode="&#xEA1F;"
      horiz-adv-x="1000" d=" M626.4285714285714 657.6428571428571C645.0714285714286 651.2857142857142 655.0714285714286 631 648.7857142857143 612.3571428571429S622.1428571428572 583.7142857142858 603.5 590C570.5 601.2142857142858 535.7142857142858 607 500.0714285714286 607C322.5714285714286 607 178.6428571428571 463.0714285714285 178.6428571428571 285.5714285714286S322.5714285714286 -35.8571428571429 500.0714285714286 -35.8571428571429C677.5714285714286 -35.8571428571429 821.5 108.0714285714286 821.5 285.5714285714286C821.5 336.9285714285715 809.4285714285713 386.5714285714286 786.6428571428571 431.2857142857143C777.7142857142858 448.8571428571429 784.6428571428571 470.3571428571428 802.2857142857142 479.2857142857143S841.3571428571429 481.2857142857142 850.2857142857143 463.6428571428571C878.1428571428572 408.9285714285714 892.9285714285714 348.2142857142856 892.9285714285714 285.4999999999999C892.9285714285714 68.4999999999999 717.0714285714286 -107.357142857143 500.0714285714286 -107.357142857143S107.2142857142857 68.4999999999999 107.2142857142857 285.4999999999999C107.2142857142857 502.4999999999999 283.0714285714286 678.3571428571428 500.0714285714286 678.3571428571428C543.5714285714286 678.3571428571428 586.1428571428571 671.2857142857142 626.5 657.5714285714284z M668.1428571428571 668C682.0714285714286 654.0714285714286 682.0714285714286 631.4285714285714 668.1428571428571 617.5L525.2857142857142 474.6428571428572C511.3571428571428 460.7142857142857 488.7142857142857 460.7142857142857 474.7857142857143 474.6428571428572S460.8571428571428 511.2142857142858 474.7857142857143 525.1428571428571L592.3571428571428 642.7142857142858L474.7857142857143 760.2857142857142C460.8571428571428 774.2142857142857 460.8571428571428 796.8571428571429 474.7857142857143 810.7857142857142S511.3571428571428 824.7142857142857 525.2857142857142 810.7857142857142L668.1428571428571 667.9285714285714z" />
    <glyph glyph-name="remind"
      unicode="&#xEA20;"
      horiz-adv-x="1000" d=" M572.9285714285716 778.3571428571429L989.5000000000002 27.7142857142858C1011.857142857143 -12.5714285714286 997.2857142857144 -63.2857142857143 957.0714285714286 -85.6428571428571C944.7142857142858 -92.5 930.7857142857144 -96.1428571428571 916.5714285714286 -96.1428571428571H83.357142857143C37.2857142857144 -96.1428571428571 1e-13 -58.7857142857143 1e-13 -12.7857142857143C1e-13 1.3571428571429 3.5714285714287 15.2857142857143 10.5000000000001 27.7142857142858L427.0714285714287 778.3571428571429C449.4285714285715 818.6428571428572 500.2142857142858 833.1428571428572 540.4285714285714 810.7857142857143C554.0714285714287 803.2142857142858 565.2857142857143 792 572.857142857143 778.3571428571429zM500 -12.7857142857143C546.0714285714286 -12.7857142857143 583.3571428571429 24.5714285714286 583.3571428571429 70.5714285714286S546 153.9285714285715 500 153.9285714285715C453.9285714285714 153.9285714285715 416.6428571428572 116.5714285714286 416.6428571428572 70.5714285714286S454 -12.7857142857143 500 -12.7857142857143zM500 654.3571428571429C453.9285714285714 654.3571428571429 416.6428571428572 617 416.6428571428572 571V320.8571428571428C416.6428571428572 274.7857142857144 454 237.5 500 237.5S583.3571428571429 274.8571428571428 583.3571428571429 320.8571428571428V571C583.3571428571429 617.0714285714286 546 654.3571428571428 500 654.3571428571428z" />
    <glyph glyph-name="sequence-down"
      unicode="&#xEA22;"
      horiz-adv-x="1000" d=" M569.4285714285714 -113.7142857142858C551.6428571428572 -131.7857142857143 527.0714285714287 -143 500 -143S448.3571428571429 -131.7857142857143 430.5714285714286 -113.7142857142858L135.9285714285715 186.2857142857142C97.5714285714286 225.3571428571429 97.5714285714286 288.6428571428571 135.9285714285715 327.7142857142857S236.5000000000001 366.7857142857142 274.857142857143 327.7142857142857L401.857142857143 198.4285714285713V757C401.857142857143 812.2142857142857 445.857142857143 857 500.0714285714287 857S598.2857142857143 812.2142857142857 598.2857142857143 757V198.4285714285713L725.2857142857144 327.7142857142857C763.6428571428573 366.7857142857142 825.857142857143 366.7857142857142 864.2142857142859 327.7142857142857S902.5714285714288 225.3571428571429 864.2142857142859 186.2857142857142L569.5714285714288 -113.7142857142858z" />
    <glyph glyph-name="sequence-up"
      unicode="&#xEA23;"
      horiz-adv-x="1000" d=" M430.5714285714286 827.7142857142857C448.3571428571429 845.7857142857143 472.9285714285714 857 500 857S551.6428571428571 845.7857142857143 569.4285714285714 827.7142857142857L864.0714285714286 527.7142857142857C902.4285714285714 488.6428571428571 902.4285714285714 425.3571428571429 864.0714285714286 386.2857142857143S763.5 347.2142857142857 725.1428571428571 386.2857142857143L598.1428571428571 515.5714285714287V-43C598.1428571428571 -98.2142857142857 554.1428571428571 -143 499.9285714285713 -143S401.7142857142857 -98.2142857142857 401.7142857142857 -43V515.5714285714287L274.7142857142856 386.2857142857143C236.3571428571428 347.2142857142857 174.1428571428571 347.2142857142857 135.7857142857142 386.2857142857143S97.4285714285713 488.6428571428571 135.7857142857142 527.7142857142858L430.4285714285714 827.7142857142858z" />
    <glyph glyph-name="sequence"
      unicode="&#xEA24;"
      horiz-adv-x="1000" d=" M499.8571428571429 -71.5714285714285C489.8571428571429 -71.5714285714285 479.9285714285714 -67.7857142857142 472.2857142857143 -60.1428571428571L238.5 173.6428571428571C223.2857142857143 188.8571428571428 223.2857142857143 213.5 238.5 228.7142857142858S278.3571428571429 243.9285714285715 293.5714285714286 228.7142857142858L499.7857142857143 22.5L706 228.7142857142858C721.2142857142857 243.9285714285715 745.8571428571429 243.9285714285715 761.0714285714287 228.7142857142858S776.2857142857143 188.8571428571429 761.0714285714287 173.6428571428571L527.2857142857144 -60.1428571428571C519.6428571428572 -67.7857142857142 509.7142857142858 -71.5714285714285 499.7142857142858 -71.5714285714285zM499.8571428571429 691.5L293.6428571428572 485.2857142857142C278.4285714285715 470.0714285714285 253.7857142857144 470.0714285714285 238.5714285714287 485.2857142857142S223.3571428571429 525.1428571428571 238.5714285714287 540.3571428571428L472.3571428571429 774.1428571428571C487.5714285714287 789.3571428571428 512.2142857142858 789.3571428571428 527.4285714285716 774.1428571428571L761.2142857142859 540.3571428571428C776.4285714285716 525.1428571428571 776.4285714285716 500.4999999999999 761.2142857142859 485.2857142857142S721.357142857143 470.0714285714285 706.1428571428572 485.2857142857142L499.9285714285715 691.5z" />
    <glyph glyph-name="warning"
      unicode="&#xEA25;"
      horiz-adv-x="1000" d=" M500 -143C223.8571428571429 -143 0 80.8571428571429 0 357S223.8571428571429 857 500 857C776.1428571428571 857 1000 633.1428571428571 1000 357S776.1428571428571 -143 500 -143zM500 474.8571428571429L392.2857142857143 582.5714285714287C359.7142857142857 615.1428571428571 307 615.1428571428571 274.4285714285715 582.5714285714287S241.8571428571429 497.2857142857143 274.4285714285715 464.7142857142858L382.1428571428571 357.0000000000001L274.4285714285714 249.2857142857144C241.8571428571429 216.7142857142858 241.8571428571429 164.0000000000001 274.4285714285714 131.4285714285715S359.7142857142857 98.8571428571429 392.2857142857142 131.4285714285715L499.9999999999999 239.1428571428572L607.7142857142857 131.4285714285716C640.2857142857142 98.857142857143 692.9999999999999 98.857142857143 725.5714285714286 131.4285714285716S758.1428571428571 216.7142857142858 725.5714285714286 249.2857142857145L617.8571428571428 357.0000000000002L725.5714285714284 464.7142857142859C758.142857142857 497.2857142857145 758.142857142857 550.0000000000002 725.5714285714284 582.5714285714287S640.2857142857142 615.1428571428573 607.7142857142856 582.5714285714287L499.9999999999998 474.857142857143z" />
    <glyph glyph-name="android2"
      unicode="&#xE900;"
      horiz-adv-x="1000" d=" M888.65625 422.34375C875.4375000000001 541.6875 808.5 644.78125 712.65625 707.0625L756.09375 794.0625C766.8125 815.5625 758.09375 841.625 736.59375 852.40625S689.0937500000001 854.40625 678.3125000000001 832.90625L634.7500000000001 745.625L623.4687500000001 750.1875C584.6875000000001 763.03125 543.1875000000001 770.03125 500.0312500000002 770.03125S415.3750000000002 763.03125 376.5937500000002 750.1875L365.3125000000002 745.625L321.6562500000002 832.90625C310.9375000000002 854.40625 284.8125000000001 863.0625 263.3750000000001 852.40625C241.8750000000002 841.6875 233.2187500000002 815.5625 243.8750000000002 794.0625L287.3125000000001 707.0625C191.5312500000002 644.84375 124.5937500000002 541.71875 111.3750000000001 422.34375V378.90625H891.1562500000001V422.34375H888.6562500000001zM344.21875 487.5625C308.2187500000001 487.5625 279.0625 516.78125 279.0625 552.71875C279.0625 588.71875 308.125 617.71875 344.0625 617.875H344.34375C380.34375 617.71875 409.34375 588.65625 409.34375 552.71875S380.125 487.5625 344.1875 487.5625zM655.5 487.5625C619.5625 487.5625 590.34375 516.78125 590.34375 552.71875C590.34375 588.71875 619.4062499999999 617.71875 655.3437499999999 617.875H655.7812499999999C691.7812499999999 617.71875 720.7812499999999 588.65625 720.7812499999999 552.71875S691.5625 487.5625 655.6249999999999 487.5625H655.4687499999999z M891.0625 -142.5625V285.21875H108.90625V-143H891.0625z" />
    <glyph glyph-name="arrow-down2"
      unicode="&#xE901;"
      horiz-adv-x="1000" d=" M142.4375 199.5L474.28125 -132.4375C488.3437499999999 -146.5000000000001 511.4375 -146.5000000000001 525.5624999999999 -132.4375L857.5625 199.5C871.625 213.5625 871.625 236.5625 857.625 250.71875L825.6249999999999 282.71875C811.5625 296.71875 788.5625 296.71875 774.4687499999999 282.71875L558.5312499999999 66.7187500000001V820.7187500000001C558.5312499999999 840.5625000000001 542.2499999999999 856.8750000000001 522.3749999999999 856.9375000000001L477.4374999999999 857.0000000000001C457.5937499999999 856.9375000000001 441.2812499999999 840.7187500000001 441.2812499999999 820.7812500000001V66.7187500000001L225.2812499999999 282.6562500000001C211.2187499999999 296.6562500000001 188.2187499999999 296.6562500000001 174.1249999999999 282.6562500000001L142.2812499999999 250.7187500000001C128.2812499999999 236.6562500000001 128.2812499999999 213.5625000000001 142.3437499999999 199.5000000000001z" />
    <glyph glyph-name="arrow-up2"
      unicode="&#xE902;"
      horiz-adv-x="1000" d=" M857.5625 514.5L525.71875 846.4375C511.6562500000001 860.5 488.5625 860.5 474.4375 846.4375L142.4375 514.5C128.375 500.4375 128.375 477.4375 142.375 463.28125L174.375 431.28125C188.4375 417.28125 211.4375 417.28125 225.5312500000001 431.28125L441.46875 647.28125V-106.78125C441.46875 -126.6250000000001 457.7500000000001 -142.9375 477.625 -143H522.5625C542.4062500000001 -142.9375 558.71875 -126.71875 558.71875 -106.78125V647.28125L774.71875 431.34375C788.78125 417.34375 811.78125 417.34375 825.875 431.34375L857.65625 463.1874999999999C871.71875 477.3437499999999 871.71875 500.4062499999999 857.65625 514.46875z" />
    <glyph glyph-name="attribution"
      unicode="&#xE903;"
      horiz-adv-x="1000" d=" M0 -80.5H1000V-143H0V-80.5z M0 353.4375H187.5V40.9375H0V353.4375z M250 857H437.5V40.9375H250V857z M500 603.5H687.5V40.9999999999999H500V603.5z M750 478.4375H937.5V40.9375H750V478.4375z" />
    <glyph glyph-name="avatar"
      unicode="&#xE904;"
      horiz-adv-x="1000" d=" M767.65625 589.34375C767.65625 441.53125 647.84375 321.6875 500 321.6875S232.3437500000001 441.5312500000001 232.3437500000001 589.34375C232.3437500000001 737.15625 352.1875 857 500 857S767.6562499999999 737.1875 767.6562499999999 589.34375z M500 303.0625C253.6562500000001 303.0625 53.9375 103.28125 53.9375 -143H946.09375C946.09375 103.28125 746.375 303.0625 500.0312499999999 303.0625z" />
    <glyph glyph-name="book2"
      unicode="&#xE905;"
      horiz-adv-x="1000" d=" M218.71875 -80.28125C184.21875 -80.28125 156.21875 -52.2812499999999 156.21875 -17.78125S184.21875 44.71875 218.71875 44.71875H906.21875V107.21875H218.71875C149.71875 107.21875 93.71875 51.21875 93.71875 -17.78125S149.71875 -142.78125 218.71875 -142.78125H906.21875V-81.3437499999999L218.71875 -80.28125z M218.71875 856.78125C149.71875 856.78125 93.71875 800.78125 93.71875 731.78125V-17.7812500000001C93.71875 51.2187499999999 149.71875 107.2187499999999 218.71875 107.2187499999999H906.21875V856.78125H218.71875zM736.5625 451.0625H338.90625C319.1875 451.0625 303.1875 467.0625 303.1875 486.78125S319.1875 522.5 338.90625 522.5H736.5625C756.28125 522.5 772.28125 506.5 772.28125 486.78125S756.34375 451.0625 736.5625 451.0625zM736.5625 636.5625H338.90625C319.1875 636.5625 303.1875 652.5625 303.1875 672.28125S319.1875 708 338.90625 708H736.5625C756.28125 708 772.28125 692 772.28125 672.28125S756.34375 636.5625 736.5625 636.5625z" />
    <glyph glyph-name="btn-off"
      unicode="&#xE906;"
      horiz-adv-x="1000" d=" M953.21875 683.28125H46.65625C20.875 683.28125 0 662.4375 0 636.625V77.3437500000001C0 51.625 20.84375 30.6875000000001 46.65625 30.6875000000001H953.4374999999998C979.2187499999998 30.6875000000001 1000.09375 51.5312500000001 1000.09375 77.3437500000001V636.625C1000.0312499999998 662.40625 979.15625 683.28125 953.25 683.28125zM813.5 116.65625C813.5 103.8750000000001 803 93.375 790.21875 93.375H85.9375C73.09375 93.375 62.65625 103.875 62.65625 116.65625V597.3125C62.65625 610.25 73 620.59375 85.9375 620.59375H790.21875C802.9999999999999 620.59375 813.5 610.25 813.5 597.3125V116.65625z M335.84375 458.4375C312.28125 482.78125 280.78125 495 241.40625 495C219.625 495 200.46875 491.5 183.90625 484.5C171.40625 479.21875 159.90625 471.21875 149.40625 460.34375C138.96875 449.625 130.6875 437.34375 124.625 423.6875C116.5625 405.25 112.40625 382.4687500000001 112.40625 355.34375C112.40625 312.78125 124.125 279.5 147.5625 255.2812499999999C170.90625 230.9999999999999 202.5 218.9374999999999 242.125 218.9374999999999C281.34375 218.9374999999999 312.625 231.15625 336.125 255.4374999999999S371.28125 313.4999999999999 371.28125 356.5937499999999C371.28125 400.0312499999999 359.4375 434.0312499999999 335.84375 458.4374999999998zM242 280.5625C225.0625 280.5625 211.5 286.5 200.4375 298.7812499999999C189.28125 311.4374999999999 183.65625 330.9999999999999 183.65625 357.0624999999999C183.65625 383.7187499999999 189.21875 403.3437499999999 200.09375 415.625C210.59375 427.40625 224.375 433.1874999999999 242.09375 433.1874999999999S273.4375 427.53125 283.875 415.9687499999999C294.59375 403.9687499999999 300.03125 384.4062499999999 300.03125 357.9062499999999C299.96875 330.9687499999999 294.3125 311.0624999999999 283.25 298.6874999999999C272.40625 286.4687499999999 258.96875 280.5312499999999 242.03125 280.5312499999999z M404.9375 223.5H468.71875V325.0000000000001H570.21875V382.0625000000001H468.7187499999999V433.2187500000001H571.5V490.5000000000001H404.9375z M601.21875 223.5H664.78125V325.0000000000001H766.5625V382.0625000000001H664.78125V433.2187500000001H767.21875V490.5000000000001H601.2187499999999z" />
    <glyph glyph-name="btn-on"
      unicode="&#xE907;"
      horiz-adv-x="1000" d=" M953.4375 683.28125H46.5937500000001C20.8750000000001 683.28125 -0.0624999999999 662.4375 -0.0624999999999 636.71875V77.375C-0.0624999999999 51.65625 20.8750000000001 30.8125 46.5937500000001 30.8125H953.5937500000002C979.1562500000002 30.8125 1000.0937500000002 51.6562500000001 1000.0937500000002 77.375V636.71875C1000.0312500000002 662.4375 978.9375000000002 683.28125 953.4375000000002 683.28125zM937.5 116.5C937.5 103.71875 927 93.2187499999999 914.28125 93.2187499999999H209.7187500000001C196.9375000000001 93.2187499999999 186.4375000000001 103.7187499999999 186.4375000000001 116.5V597.5C186.4375000000001 610.3437499999999 196.9375000000001 620.78125 209.7187500000001 620.78125H914.2187500000002C926.9375000000002 620.71875 937.4375 610.34375 937.4375 597.4375V116.4999999999999z M523.15625 458.34375C513.09375 468.78125 501.3124999999999 476.5 488.375 482.40625C471.03125 490.46875 451.3125 494.96875 428.71875 494.96875C406.9375 494.96875 387.875 491.53125 371.15625 484.40625C358.65625 479.25 347.09375 471.1875 336.71875 460.25C326.28125 449.53125 318 437.3125 311.9375 423.7500000000001C303.65625 405.3125000000001 299.65625 382.53125 299.65625 355.3125000000001C299.65625 312.8125000000001 311.375 279.53125 334.875 255.3125000000001C358.3125 231.03125 389.875 219.03125 429.59375 219.03125C468.8124999999999 219.03125 500.09375 231.09375 523.53125 255.53125C544.53125 277.3125 555.53125 306.96875 557.8125 343.6875C558.0312500000001 347.9687500000001 558.7500000000001 352.0312500000001 558.7500000000001 356.6250000000001C558.6875000000001 399.9687500000001 546.8125 433.9687500000001 523.1875000000001 458.3437500000001zM429.28125 280.71875C419.78125 280.71875 411.0000000000001 283.4375 401.5 289.0625C395.28125 292.71875 390.8437500000001 295.21875 387.5625000000001 298.90625C376.3437500000001 311.34375 370.6250000000001 330.9062500000001 370.6250000000001 357.1875000000001C370.6250000000001 383.8437500000001 376.1250000000001 403.4062500000001 386.96875 415.6250000000001C397.53125 427.46875 411.25 433.3437500000001 429.0312500000001 433.3437500000001C437.25 433.3437500000001 444.8125000000001 432.0000000000001 452.09375 429.1250000000001L454.09375 428.3437500000001H454.2500000000001C455.4062500000001 427.6250000000001 470.5312500000001 416.5625 470.9687500000001 416.0625C481.7500000000001 404.125 487.1250000000001 384.5 487.1250000000001 357.90625C487.1875000000001 330.96875 481.5625 310.96875 470.4687500000001 298.5625C459.6875 286.5625 446.1875000000001 280.7187499999999 429.25 280.7187499999999z M762.9375 322.78125L661.09375 490.4375000000001H601.2500000000001V223.4375H661.09375V388.28125L758.8125 223.4375H822.25V490.4375H762.9687500000001z" />
    <glyph glyph-name="building2"
      unicode="&#xE908;"
      horiz-adv-x="1000" d=" M627.9375 794.5C597.875 832.28125 552.09375 857 500 857S402.15625 832.28125 372.0625 794.5H125V-143H875V794.5H627.9375zM500 825.71875C517.28125 825.71875 531.28125 811.71875 531.28125 794.4375S517.28125 763.28125 500 763.28125C482.78125 763.28125 468.71875 777.28125 468.71875 794.5625S482.78125 825.71875 500 825.71875zM812.5 -80.5H187.5V732H341.21875C338.0625 719.4375 335.9375 706.5 335.9375 692.9375H664.0937499999999C664.0937499999999 706.5 662.03125 719.4375 658.9375 732H812.5V-80.5z M297.71875 292.0625V635.78125H235.21875V229.5625H764.78125V292.0625z M235.21875 161.71875H764.7812500000001V99.21875H235.2187500000001V161.71875z M235.21875 44.5H764.7812500000001V-18H235.2187500000001V44.5z M484.28125 472.84375L600.21875 356.8437500000001L754.1562500000001 510.7812500000001L709.9375000000001 555L600.2187500000001 445.2812500000001L484.2812500000001 561.2187500000001L377.8437500000001 454.7812500000001L341.8437500000001 490.7812500000001L297.6875000000001 446.6250000000001L377.8437500000001 366.4062500000001z" />
    <glyph glyph-name="charts-line"
      unicode="&#xE909;"
      horiz-adv-x="1000" d=" M62.5 74.9375V701.59375H0V12.4375H1000V74.9375z M621 273.28125C612.71875 273.28125 604.78125 276.5625000000001 598.9375 282.4375L439.4375000000001 441.9375L350.7812500000001 353.375C338.5625000000001 341.1562500000001 318.78125 341.1562500000001 306.5625000000001 353.375L170.8437500000001 489.09375C158.6250000000001 501.3125 158.6250000000001 521.09375 170.8437500000001 533.3125S202.8437500000001 545.53125 215.0625000000001 533.3125L328.6250000000001 419.75L417.2812500000001 508.3124999999999C429.5000000000001 520.53125 449.2812500000001 520.53125 461.5 508.3124999999999L621 348.7499999999999L909.9375000000002 637.7499999999999C922.15625 649.9687499999999 941.9375000000002 649.9687499999999 954.15625 637.7499999999999S966.375 605.7499999999999 954.15625 593.5312499999999L643.09375 282.3749999999999C637.25 276.5937499999999 629.3125 273.3124999999999 621.03125 273.3124999999999z M932 455.71875C914.71875 455.71875 900.71875 469.7187500000001 900.71875 487V589.0625H795C777.71875 589.0625 763.71875 603.0625 763.71875 620.34375S777.71875 651.625 795 651.625H963.2812500000002V486.9687499999999C963.2812500000002 469.6874999999999 949.2812500000002 455.6875 932 455.6875z" />
    <glyph glyph-name="charts"
      unicode="&#xE90A;"
      horiz-adv-x="1000" d=" M62.5 -80.5V857H0V-143H1000V-80.5z M587.4375 287.5625C579.1562499999999 287.5625 571.21875 290.84375 565.375 296.7187499999999L405.8125 456.2187499999999L317.25 367.7187499999999C305.03125 355.5 285.25 355.5 273.03125 367.7187499999999L137.3125 503.4374999999999C125.09375 515.6562499999999 125.09375 535.4375 137.3125 547.6562499999999S169.3125 559.8749999999999 181.53125 547.6562499999999L295.09375 434.0937499999999L383.75 522.6562499999998C395.96875 534.8749999999998 415.75 534.8749999999998 427.9687499999999 522.6562499999998L587.4687499999999 363.0937499999999L876.4062499999999 652.0937499999998C888.6249999999998 664.3124999999998 908.4062499999998 664.3124999999998 920.6249999999998 652.0937499999998S932.8437499999998 620.0937499999998 920.6249999999998 607.8749999999998L609.5624999999998 296.6562499999999C603.7187499999998 290.8749999999999 595.7812499999998 287.5937499999999 587.4999999999998 287.5937499999999z M137.34375 -18V364.5C137.34375 364.5 169.34375 376.71875 181.5625 364.5L295.125 250.9375L383.78125 339.4375000000001C396 351.65625 415.78125 351.65625 428 339.4375000000001L587.4375 179.875L876.3749999999999 468.875C888.5937499999999 481.09375 920.5937499999998 468.875 920.5937499999998 468.875V-17.9687500000001H137.3749999999999z" />
    <glyph glyph-name="check2"
      unicode="&#xE90B;"
      horiz-adv-x="1000" d=" M846.71875 298.0625V106.84375C846.71875 59.125 829.7812499999999 18.34375 795.9375 -15.4999999999999S721.21875 -66.3437499999999 673.59375 -66.3437499999999H173.25C125.53125 -66.3437499999999 84.8125 -49.3437499999999 50.90625 -15.4999999999999S0.0625 59.15625 0.0625 106.84375V607.125C0.0625 654.90625 17 695.625 50.84375 729.5625C84.78125 763.40625 125.5625 780.34375 173.28125 780.34375H673.625C698.9062500000001 780.34375 722.3437500000001 775.34375 743.9687500000001 765.34375C749.9687500000001 762.5625 753.6250000000001 757.90625 754.75 751.5625C755.9687500000001 744.71875 754.1875 738.90625 749.3125 734.125L719.8125000000001 704.625C715.8125000000001 700.5625 711.15625 698.5625 705.96875 698.5625C704.75 698.5625 702.96875 699 700.53125 699.78125C691.3125 702.21875 682.3125000000001 703.34375 673.4687500000001 703.34375H173.1875000000001C146.7500000000001 703.34375 124.0312500000001 693.90625 105.2500000000001 675.0625C86.40625 656.28125 76.9687500000001 633.625 76.9687500000001 607.125V106.84375C76.9687500000001 80.3437500000001 86.4062500000001 57.78125 105.2500000000001 38.8437500000001C124.0312500000001 20.0625000000001 146.7500000000001 10.6250000000001 173.1875000000001 10.6250000000001H673.53125C700.03125 10.6250000000001 722.6875 20.0625000000001 741.46875 38.8437500000001C760.3125000000001 57.6875000000001 769.75 80.3437500000001 769.75 106.8437500000001V259.6250000000001C769.75 264.8437500000003 771.53125 269.1875000000001 775.1875 272.8437500000001L813.6875 311.34375C817.6875 315.34375 822.34375 317.34375 827.53125 317.34375C829.875 317.34375 832.3125 316.78125 834.7500000000001 315.5625000000001C842.6875000000001 312.34375 846.6875000000001 306.5000000000001 846.7500000000001 298.0625000000001V298.0625000000001zM985.5625 592.15625L496.0625 102.65625C486.4062500000001 93 475.0000000000001 88.21875 461.7812500000001 88.21875S437.1250000000001 93 427.5000000000001 102.65625L168.9375000000001 361.21875C159.2812500000001 370.9375 154.5000000000001 382.28125 154.5000000000001 395.5S159.2812500000001 420.15625 169.0000000000001 429.78125L235.0625000000001 495.8437499999999C244.7187500000001 505.4999999999999 256.1250000000001 510.3437499999999 269.3437500000001 510.3437499999999S294.0000000000001 505.5624999999999 303.6250000000001 495.8437499999999L461.7812500000001 337.6874999999999L850.9375000000001 726.7499999999999C860.5000000000001 736.4062499999999 872.0000000000001 741.1874999999999 885.2187500000001 741.1874999999999S909.8750000000002 736.4062499999999 919.5000000000002 726.7499999999999L985.6562500000002 660.5937499999999C995.2187500000002 651.0937499999999 1000.0000000000002 639.6562499999999 1000.0000000000002 626.4374999999999S995.2187500000002 601.71875 985.5625000000002 592.09375V592.09375z" />
    <glyph glyph-name="close-circle"
      unicode="&#xE90C;"
      horiz-adv-x="1000" d=" M748 209.78125C748 221.125 743.84375 230.7812500000001 735.71875 239.0625000000001L617.78125 357.0000000000001L735.625 474.7812500000001C743.84375 483.0000000000001 747.90625 492.7812500000001 747.90625 504.0625000000001C747.90625 515.8437500000001 743.75 525.7812500000001 735.625 534.0000000000001L676.96875 592.5625000000001C668.6875 600.7812500000001 658.7500000000001 604.9062500000001 646.90625 604.9062500000001C635.625 604.9062500000001 625.96875 600.7500000000001 617.625 592.5625000000001L499.9687499999999 474.7812500000001L382.1875 592.625C373.84375 600.84375 364.125 604.96875 352.84375 604.96875C341.125 604.96875 331.0625 600.8125000000001 322.90625 592.625L264.34375 534.0625C256.125 525.78125 252 515.7812500000001 252 504.1250000000001C252 492.8437500000001 256.15625 483.1875000000001 264.34375 474.8437500000001L382.1874999999999 357.0000000000001L264.3437499999999 239.1562500000001C256.1249999999999 230.9375 251.9999999999999 221.21875 251.9999999999999 209.875C251.9999999999999 198.15625 256.1562499999999 188.15625 264.3437499999999 179.875L322.9062499999999 121.3125000000001C331.1249999999999 113.09375 341.1249999999999 109.03125 352.8437499999999 109.03125C364.125 109.03125 373.84375 113.09375 382.1249999999999 121.3125000000001L499.9687499999998 239.1562500000001L617.7499999999998 121.3125000000001C626.0312499999998 113.09375 635.7499999999998 109.03125 647.0312499999999 109.03125C658.8124999999998 109.03125 668.8124999999998 113.09375 677.0937499999998 121.3125000000001L735.7499999999998 179.875C743.8124999999998 188.15625 747.9687499999999 198.21875 747.9687499999999 209.8125zM1000 357C1000 266.28125 977.65625 182.65625 933 106.0625C888.21875 29.34375 827.6562500000001 -31.28125 751.0625000000001 -76C674.28125 -120.65625 590.7187500000001 -142.9375 500 -142.9375S325.65625 -120.7187500000001 248.9375 -76C172.375 -31.28125 111.71875 29.3437499999999 67 106.0625C22.34375 182.6249999999999 0 266.2812499999999 0 357S22.34375 531.34375 67.0625 608S172.34375 745.28125 249 789.9375S409.28125 856.9375 500 856.9375S674.28125 834.59375 751.0625 789.875C827.625 745.15625 888.2812499999999 684.59375 932.9999999999998 607.9375C977.5624999999998 531.375 1000 447.71875 1000 357z" />
    <glyph glyph-name="coincide"
      unicode="&#xE90E;"
      horiz-adv-x="1000" d=" M1000 530.9375C1000 709.28125 854.84375 854.4375 676.5 854.4375C582.71875 854.4375 495.0624999999999 813.21875 433.15625 741.4375C193.59375 737.15625 0 541.28125 0 300.71875C0 57.4375 197.9375 -140.4999999999999 441.15625 -140.4999999999999C677.3750000000001 -140.4999999999999 871.65625 48.0625 881.3125 282.5625000000001C956.7500000000002 344.5625000000001 1000.0312500000002 434.1250000000001 1000.0312500000002 530.90625zM676.5 795.65625C822.5 795.65625 941.21875 676.9375 941.21875 530.9375C941.21875 467.71875 918.71875 408.15625 878.28125 360.78125C851.71875 551.9375 701.125 705.5625 510.8437500000001 736.1249999999999C557.5625000000001 774.40625 615.5625 795.6249999999999 676.5000000000001 795.6249999999999zM441.15625 -81.65625C230.3125000000001 -81.65625 58.8125 89.84375 58.8125 300.6875C58.8125 492.8437500000001 201.25 652.34375 389.7500000000001 678.90625C365.5937500000001 633.0625 352.9687500000001 582.75 352.9687500000001 530.90625C352.9687500000001 352.5625 498.1250000000001 207.40625 676.4687500000001 207.40625C726.03125 207.40625 774.3125000000001 218.9687500000001 818.6875 241.1875C789.96875 58.75 631.03125 -81.65625 441.1875 -81.65625z" />
    <glyph glyph-name="data-decrease"
      unicode="&#xE90F;"
      horiz-adv-x="1000" d=" M128.5625 519.65625C97.125 519.65625 71.40625 493.9375 71.40625 462.5V251.5C71.40625 220.0625 97.125 194.3437499999999 128.5625 194.3437499999999H871.40625C902.84375 194.3437499999999 928.5625000000002 220.0625 928.5625000000002 251.5V462.4999999999999C928.5625000000002 493.9374999999999 902.84375 519.65625 871.40625 519.65625H128.5625z" />
    <glyph glyph-name="data-increase"
      unicode="&#xE910;"
      horiz-adv-x="1000" d=" M374.34375 -90.0625C374.34375 -121.125 399.78125 -146.625 430.90625 -146.625H569.1875C600.25 -146.625 625.7499999999999 -121.1875 625.7499999999999 -90.0625V804.09375C625.7499999999999 835.15625 600.3124999999999 860.65625 569.1875 860.65625H430.84375C399.78125 860.65625 374.28125 835.21875 374.28125 804.09375V-90.0625z M56.5625 230.28125C25.40625 230.28125 0 255.71875 0 286.84375V427.125C0 458.1875 25.4375 483.6875 56.5625 483.6875H943.5C974.5625 483.6875 1000 458.25 1000 427.125V286.78125C1000 255.71875 974.5625 230.21875 943.4375 230.21875H56.59375z" />
    <glyph glyph-name="down"
      unicode="&#xE911;"
      horiz-adv-x="1000" d=" M911.78125 651.0625L500 239.28125L88.21875 651.125L0 562.84375L500 62.84375L1000 562.84375L911.78125 651.0625z" />
    <glyph glyph-name="download2"
      unicode="&#xE912;"
      horiz-adv-x="1000" d=" M769.28125 28.78125C769.28125 38.625 765.5000000000001 47.34375 757.7812500000001 54.5C750.21875 61.78125 741.125 65.28125 730.7187500000001 65.28125C720.3750000000001 65.28125 711.2812500000001 61.5 703.6562500000001 54.5C696.0937500000001 47.28125 692.1562500000001 38.78125 692.1562500000001 28.78125C692.1562500000001 18.9375 696.0937500000002 10.34375 703.6562500000001 3.125S720.3125000000001 -7.65625 730.7187500000001 -7.65625C741.0625000000001 -7.8125 750.1562500000001 -4 757.7812500000001 3.125C765.5000000000001 10.2812499999999 769.28125 18.9062499999999 769.28125 28.78125zM923.21875 28.78125C923.21875 38.625 919.4375 47.34375 911.71875 54.5C904.15625 61.78125 895.2187500000001 65.28125 884.65625 65.28125C874.3125 65.28125 865.21875 61.5 857.59375 54.5C849.875 47.28125 846.0937500000001 38.78125 846.0937500000001 28.78125C846.0937500000001 18.9375 849.875 10.34375 857.59375 3.125C865.1562500000001 -4.0937500000001 874.2500000000001 -7.65625 884.65625 -7.65625C895.15625 -7.8125 904.09375 -4 911.71875 3.125C919.28125 10.2812499999999 923.21875 18.9062499999999 923.21875 28.78125zM1000 156.4375V-25.8437499999999C1000 -41.0624999999999 994.34375 -54.0624999999999 983.15625 -64.6249999999999C971.8749999999998 -75.28125 958.375 -80.46875 942.375 -80.46875H57.7187499999999C41.7187499999999 -80.46875 28.0624999999999 -75.2499999999999 16.9374999999999 -64.6249999999999S-1e-13 -40.9687499999999 -1e-13 -25.78125V156.5000000000001C-1e-13 171.71875 5.6562499999999 184.5625000000001 16.8437499999999 195.2187500000001C28.1249999999999 205.8750000000001 41.5624999999999 211.2187500000001 57.6249999999999 211.2187500000001H337.125L418.40625 133.6562500000001C441.5625 112.3750000000001 468.9062499999999 101.8125000000002 500.1249999999999 101.8125000000002C531.40625 101.8125000000002 558.6874999999999 112.3750000000002 581.90625 133.6562500000001L663.6249999999999 211.2187500000001H942.6249999999998C958.625 211.2187500000001 972.28125 205.9375000000001 983.4062499999998 195.2187500000001C994.4687499999998 184.4375000000001 999.96875 171.6562500000001 999.96875 156.4375000000001V156.4375000000001zM804.71875 480.65625C811.5 464.9375 808.71875 451.71875 796.28125 440.71875L527.0625 185.5C519.90625 178.28125 510.8437500000001 174.65625 500 174.65625C489.21875 174.65625 480.28125 178.4374999999999 472.9375 185.59375L203.71875 440.8125C191.28125 451.75 188.5 465.03125 195.28125 480.65625C202.0625 495.375 214 502.8125 230.7187500000001 502.8125H384.5000000000001V758.09375C384.5000000000001 767.875 388.3437500000001 776.4375 396.0000000000001 783.8125C403.5625000000001 791.03125 412.5625000000001 794.53125 423.0000000000001 794.53125H576.7812500000001C587.1250000000001 794.53125 596.2187500000001 790.875 603.8437500000001 783.75C611.5625000000001 776.46875 615.3437500000001 767.96875 615.3437500000001 758.03125V502.75H769.1250000000001C785.9687500000001 502.8125 797.8437500000001 495.40625 804.6875 480.6875V480.6875z" />
    <glyph glyph-name="edit2"
      unicode="&#xE913;"
      horiz-adv-x="1000" d=" M1000 617.4375C1000 594.09375 991.78125 574.28125 975.5 558L865.9375 448.4375L591.375 723.09375L700.9375 832.03125C716.875 848.75 736.5937499999999 857.03125 760.28125 857.03125C783.5 857.03125 803.5625000000001 848.6875 820.34375 831.96875L975.5 677.46875C991.84375 660.40625 999.9375 640.3125 1000 617.46875V617.46875z M549.15625 680.71875L0 131.5625V-143H274.65625L823.8749999999999 406.21875L549.1562499999999 680.71875zM244 -69.0625H163.78125V20.78125H73.9375V100.9375L549.15625 576.15625L617.09375 508.1562500000001L200.75 91.875C196.96875 88.0937500000001 195.25 83.59375 195.25 78.3750000000001C195.25 66.8125000000001 201.03125 60.8750000000001 212.59375 60.8750000000001C217.875 60.8750000000001 222.375 62.6562500000001 226.09375 66.4375000000001L642.53125 482.8750000000002L719.1875 406.2187500000003L244.03125 -69.0624999999998z" />
    <glyph glyph-name="exclamation-circle2"
      unicode="&#xE914;"
      horiz-adv-x="1000" d=" M500 857C223.84375 857 0 633.15625 0 357C0 80.78125 223.84375 -143 500 -143S1000 80.78125 1000 357C1000 633.15625 776.15625 857 500 857zM562.5 -18H437.5V107H562.5V-18zM582.0625 544.5L562.5 232H437.5L418 544.5L406.28125 732H593.84375L582.0625 544.5z" />
    <glyph glyph-name="exit"
      unicode="&#xE915;"
      horiz-adv-x="1000" d=" M961.5625 318.5625C961.5625 256.0625 949.28125 196.34375 924.84375 139.5S867.5625 33.5625 826.28125 -7.71875S735.9374999999999 -81.875 678.9999999999999 -106.375C622.15625 -130.8125 562.4999999999999 -143.0312499999999 499.9999999999999 -143.0312499999999S377.78125 -130.8125 320.9375 -106.3749999999999C264.0937499999999 -81.9374999999999 214.9999999999999 -49.0937499999999 173.7187499999999 -7.7187499999999C132.4375 33.5625000000002 99.5624999999999 82.6250000000002 75.0624999999999 139.5000000000002C50.6249999999999 196.3437500000001 38.4062499999999 256.0625000000003 38.4062499999999 318.5625000000003C38.4062499999999 391.4062500000002 54.5624999999999 460.2187500000002 86.8437499999999 524.7187500000002C119.0624999999999 589.1562500000002 164.4999999999999 643.2812500000002 222.9999999999999 686.9375000000002C240.2187499999999 699.7187500000002 259.34375 704.7812500000002 280.3437499999999 702.0000000000002S318.1249999999999 689.1562500000002 330.4999999999999 671.9375000000002C343.28125 655.1562500000002 348.2187499999999 636.2187500000002 345.28125 615.1562500000002S332.4375 577.1562500000002 315.5624999999999 564.3750000000002C276.28125 534.6562500000002 245.9062499999999 498.3750000000002 224.4999999999999 455.5312500000002S192.3437499999999 367.0312500000003 192.3437499999999 318.5312500000003C192.3437499999999 276.8125000000001 200.4062499999999 237.0937500000001 216.6249999999999 199.2500000000001S254.8437499999999 128.5937500000002 282.4062499999999 101.0312500000001C310.0624999999999 73.3750000000001 342.7499999999999 51.4687500000002 380.6249999999999 35.2500000000001S458.2812499999999 10.9062500000001 499.9062499999999 10.9062500000001S581.3437499999998 19.0625000000001 619.1874999999999 35.2500000000001C657.0312499999999 51.4687500000001 689.90625 73.4687500000001 717.4687499999999 101.0312500000001C745.1874999999999 128.6875000000002 767.0312499999999 161.3750000000002 783.2499999999999 199.3125000000001C799.4687499999999 237.1562500000001 807.5312499999999 276.9687500000001 807.5312499999999 318.5937500000001C807.5312499999999 367.0937500000001 796.8124999999999 412.8125000000002 775.3749999999999 455.5937500000002C754.0312499999999 498.4375000000002 723.6562499999999 534.7500000000001 684.375 564.3750000000002C667.59375 577.1562500000002 657.59375 594.1562500000001 654.59375 615.1562500000001C651.59375 636.2187500000001 656.4375 655.1562500000001 669.3749999999999 671.9375000000001C681.8124999999999 689.1562500000001 698.65625 699.2187500000001 719.8749999999999 702.0000000000001C741.15625 704.7812500000001 760.15625 699.7812500000001 776.9375 686.9375000000001C835.375 643.2812500000001 880.78125 589.1562500000001 913.0937499999998 524.6562500000002S961.53125 391.4375000000002 961.53125 318.5937500000001L961.3124999999998 318.5312500000003V318.5937500000001H961.53125zM576.84375 780.0625V395.4062500000001C576.84375 374.625 569.1875 356.5625 553.9999999999999 341.2500000000001C538.78125 326.1875000000001 520.7187499999999 318.5312500000001 499.9374999999999 318.4687500000001C479.1562499999999 318.4687500000001 461.0937499999999 326.0312500000001 445.8749999999999 341.2500000000001C430.5937499999999 356.5312500000001 423.0312499999999 374.5312500000001 423.0312499999999 395.4062500000001V780.0625C423.0312499999999 800.9062500000001 430.6874999999999 818.9062500000001 445.8749999999999 834.1250000000001S479.0937499999999 856.9687500000001 499.9374999999999 856.9687500000001C520.78125 856.9687500000001 538.7812499999999 849.4062500000001 553.9999999999999 834.1250000000001S576.84375 800.8437500000001 576.84375 780.0625z" />
    <glyph glyph-name="flow"
      unicode="&#xE916;"
      horiz-adv-x="1000" d=" M783.28125 232.15625H583.125L332.96875 -18H-0.03125V-143H384.6875L634.90625 107.2187499999999H783.25V37.1562499999999L999.96875 169.7187499999999L783.25 302.21875z M447.4375 482.15625H783.2812499999999V412.0937500000001L999.9999999999998 544.65625L783.2812499999999 677.2187500000001V607.0625000000001H499.2812499999999L249.28125 857.0000000000001H-1e-13V732.0000000000001H197.5625z M583.28125 255.15625L783.2812499999999 357L583.28125 458.78125V419.5H0V294.5H583.28125z" />
    <glyph glyph-name="frame"
      unicode="&#xE917;"
      horiz-adv-x="1000" d=" M0 -80.5C0 -115.0625 27.9375 -143 62.5 -143H937.5C972.0625 -143 1000 -115.0625 1000 -80.5V532.9375H0V-80.5zM634.71875 409.34375H928.375V-38.65625H634.71875V409.34375zM72.21875 409.34375H572.21875V346.84375H72.21875C72.21875 346.84375 72.21875 409.34375 72.21875 409.34375zM72.21875 281.5625H572.21875V219.0625H72.21875C72.21875 219.0625 72.21875 281.5625 72.21875 281.5625zM72.21875 155.4375H572.21875V92.9375H72.21875C72.21875 92.9375 72.21875 155.4375 72.21875 155.4375zM72.21875 27.65625H572.21875V-34.84375H72.21875C72.21875 -34.84375 72.21875 27.65625 72.21875 27.65625z M1000 794.5C1000 829.0625 972.0625 857 937.5 857H62.5C27.9375 857 0 829.0625 0 794.5V595.4375H1000V794.5zM696.5625 655.9375H71.5625V780.9375H696.5625V655.9375zM928.34375 655.9375H740.84375V780.9375H928.34375V655.9375z" />
    <glyph glyph-name="gear-circle"
      unicode="&#xE918;"
      horiz-adv-x="1000" d=" M666.65625 356.9375000000001C666.65625 402.9375 650.4375 442.21875 617.875 474.7812500000001S546.03125 523.5 500.0312499999999 523.5S414.75 507.2812500000001 382.1874999999999 474.7812500000001C349.6249999999999 442.2187500000001 333.46875 402.9375000000001 333.46875 356.9375000000001S349.6875 271.6562500000001 382.1874999999999 239.09375C414.7499999999999 206.53125 454.0312499999999 190.375 500.0312499999999 190.375S585.3124999999999 206.5937499999999 617.875 239.09375C650.3749999999999 271.6562500000001 666.65625 310.9375 666.65625 356.9375000000001zM1000 427.84375V283.34375C1000 278.125 998.28125 273.125 994.78125 268.34375C991.28125 263.625 987 260.78125 981.7812499999998 259.90625L861.28125 241.6875000000001C853 218.2500000000001 844.5625 198.4687500000001 835.9375 182.4062500000001C851.15625 160.6875000000001 874.28125 130.6875000000001 905.59375 92.6250000000001C909.9375 87.40625 912.15625 81.96875 912.15625 76.3437500000001C912.15625 70.6250000000001 910.15625 65.6250000000001 906.21875 61.34375C894.5 45.2812500000001 873 21.8437500000001 841.7812499999999 -8.9374999999999C810.4999999999999 -39.7187499999999 790.0624999999999 -55.21875 780.5624999999999 -55.21875C775.3437499999999 -55.21875 769.7187499999999 -53.21875 763.6249999999999 -49.2812499999999L673.7812499999999 21C654.7187499999999 11 634.9999999999999 2.7812500000001 614.4999999999999 -3.71875C607.6562499999999 -62.78125 601.2187499999999 -103.1562499999999 595.6562499999999 -124.7812499999999C592.5937499999999 -136.8437499999999 584.7187499999999 -142.9999999999999 572.1562499999999 -142.9999999999999H427.71875C421.6562499999999 -142.9999999999999 416.375 -141.1562499999999 411.78125 -137.4999999999999C407.2187499999999 -133.78125 404.7187499999999 -129.15625 404.28125 -123.4999999999999L385.9999999999999 -3.71875C364.7187499999999 3.28125 345.2187499999999 11.28125 327.3437499999999 20.4375L235.5624999999999 -49.2812499999999C231.2812499999999 -53.21875 225.8437499999999 -55.0624999999999 219.3437499999999 -55.0624999999999C213.2812499999999 -55.0624999999999 207.7812499999999 -52.7187499999999 203.1249999999999 -47.9062499999999C148.4062499999999 1.5937500000001 112.6249999999999 38.0312500000001 95.6874999999999 61.4375C92.6249999999999 65.7187500000001 91.1249999999999 70.78125 91.1249999999999 76.4375000000001C91.1249999999999 81.6562500000001 92.9062499999999 86.6562500000001 96.3437499999999 91.3750000000001C102.9062499999999 100.5312500000001 113.9062499999999 114.9375000000001 129.5624999999999 134.6562500000001C145.2187499999999 154.4375000000001 156.9062499999999 169.8125000000001 164.7187499999999 180.5937500000001C152.9999999999999 202.3125000000001 144.1562499999999 223.8125000000001 137.9999999999999 245.0312500000001L18.8437499999999 262.6875000000003C13.1874999999999 263.5312500000003 8.6249999999999 266.2500000000003 5.1249999999999 270.8437500000003C1.7812499999999 275.3437500000001 -0.0312500000001 280.4062500000003 -0.0312500000001 286.1250000000003V430.6875000000003C-0.0312500000001 435.8437500000003 1.7499999999999 440.8437500000003 5.1874999999999 445.6250000000003C8.6874999999999 450.4062500000002 12.8437499999999 453.2812500000002 17.5312499999999 454.1250000000002L138.5937499999999 472.3437500000002C144.6562499999999 492.2812500000002 153.0937499999999 512.2812500000002 163.9374999999999 532.1875000000002C146.6562499999999 556.9687500000002 123.4374999999999 586.8437500000002 94.2812499999999 622.0312500000002C89.9374999999999 627.2500000000002 87.7187499999999 632.3750000000002 87.7187499999999 637.6875000000002C87.7187499999999 641.9687500000002 89.6562499999999 646.9687500000002 93.5624999999999 652.6875000000002C104.7812499999999 668.2500000000002 126.2187499999999 691.6250000000002 157.7187499999999 722.6875000000002S209.7187499999999 769.2500000000002 219.2812499999999 769.2500000000002C224.9374999999999 769.2500000000002 230.5624999999999 767.0312500000002 236.1249999999999 762.6875000000002L325.96875 692.9687500000002C345.1249999999999 702.9687500000002 364.90625 711.2500000000002 385.25 717.7500000000002C392.1874999999999 776.7500000000002 398.53125 817.1875000000003 404.1875 838.8125000000003C407.1875 850.8750000000003 415.0312499999999 857.0312500000003 427.625 857.0312500000003H572.1875C578.2499999999999 857.0312500000003 583.53125 855.2500000000003 588.125 851.5312500000003S595.125 843.1875000000003 595.625 837.5312500000003L613.8437499999999 717.7500000000002C635.1249999999999 710.7500000000002 654.6249999999999 702.7500000000002 672.4999999999999 693.5937500000003L764.9374999999998 763.3125000000003C768.8749999999999 767.2500000000003 774.0937499999998 769.0937500000003 780.6562499999998 769.0937500000003C786.3124999999999 769.0937500000003 791.7187499999998 766.8750000000003 796.8749999999998 762.5937500000003C852.9374999999998 710.8750000000003 888.6562499999998 674.0312500000002 904.3124999999998 651.8750000000002C907.3124999999998 648.3750000000002 908.8749999999998 643.6562500000002 908.8749999999998 637.5937500000002C908.8749999999998 632.3750000000002 907.1562499999998 627.3750000000002 903.6562499999998 622.5937500000002C897.1562499999998 613.4375000000002 886.0937499999997 599.0312500000002 870.4374999999998 579.3125000000002C854.7812499999997 559.5312500000002 843.0937499999998 544.2500000000002 835.2812499999998 533.4687500000002C846.5624999999998 511.7500000000003 855.4999999999997 490.4687500000003 861.9999999999998 469.6875000000003L981.2187499999998 451.4687500000003C986.8749999999998 450.6250000000003 991.4374999999998 447.8125000000003 994.9374999999998 443.3125000000003C998.2187499999998 438.7500000000003 999.9374999999998 433.5937500000003 999.9374999999998 427.8750000000003z" />
    <glyph glyph-name="gear2"
      unicode="&#xE919;"
      horiz-adv-x="1000" d=" M530.0625 784.0625L541.84375 706.78125L548.5625 662.28125L591.1249999999999 648.34375C608.6249999999999 642.6875 624.8437499999999 636.0625 639.2812499999999 628.6875L679.9999999999999 607.75L777.21875 680.96875C797.5 661.6875 812.0624999999999 646.96875 822.4374999999999 636.03125C819.7187499999999 632.46875 816.65625 628.59375 813.2187499999999 624.3125C795.9999999999999 602.53125 784.1562499999999 587.03125 775.9374999999999 575.46875L749.9999999999999 539.1875L770.7187499999999 499.5312500000001C779.9375 481.75 787.2187499999999 464.2500000000001 792.3749999999999 447.7500000000001L806.03125 404.1875000000001L927.375 385.6250000000001V325.2812500000001L807.375 307.0625000000001L792.7187499999999 265.8437500000003C785.7187499999999 246.0000000000001 778.7812499999999 229.5000000000001 771.9999999999999 217.0625000000002L750.5624999999999 177.3437500000001L776.3437499999999 140.5625000000001C788.1249999999999 123.6250000000001 804.1249999999999 102.5625000000001 824.4062499999999 77.2812500000002C815.9687499999999 68.2187500000002 805.1249999999999 57.0000000000002 790.8437499999999 42.8437500000002C786.4062499999999 38.5000000000002 782.3437499999999 34.6875000000002 778.9062499999998 31.3437500000002L719.0624999999998 78.1875000000002L681.9062499999998 107.1250000000001L640.2499999999999 85.4062500000001C624.8124999999999 77.2500000000001 608.9062499999999 70.6875000000001 592.7499999999999 65.6250000000002L547.6874999999999 51.2812500000002L542.1249999999999 4.6250000000002C538.2812499999998 -28.8124999999998 534.8437499999999 -52.8749999999998 532.0624999999999 -70.2187499999998H469.7812499999999L457.9999999999998 7.1250000000003L451.2812499999998 51.4062500000003L408.7187499999999 65.4062500000003C391.1562499999999 71.2500000000003 374.9374999999999 77.9062500000003 360.6562499999999 85.1250000000003L319.8749999999999 106.0625000000005L283.3124999999999 78.4062500000003L223.0937499999999 32.6250000000003C202.6562499999999 51.8437500000003 187.9374999999999 66.4687500000003 177.5312499999999 77.5625000000003C180.2499999999999 81.1250000000003 183.3749999999999 85.0625000000002 186.8749999999999 89.3437500000003C204.0937499999999 111.2812500000002 215.8749999999999 126.6875000000004 223.9374999999999 138.0000000000002L250.4374999999999 174.9375000000002L228.8749999999999 215.2187500000002C219.6562499999999 232.2187500000003 212.7187499999999 249.0625000000003 208.0937499999999 265.0000000000003L195.3124999999999 310.2812500000004L148.7499999999999 317.2187500000004L72.9062499999999 328.3750000000004V388.6562500000004L149.5624999999999 400.2187500000003L194.8437499999999 406.9375000000003L208.3437499999999 450.7812500000003C213.1249999999999 466.2187500000003 219.7812499999999 481.9375000000003 228.1249999999999 497.2187500000003L249.7812499999999 536.9375000000002L223.7812499999999 574.0000000000002C210.7812499999999 592.5625000000002 195.0624999999999 613.4375000000003 176.2187499999999 637.0625000000002C184.3749999999999 645.8437500000002 195.0624999999999 656.8437500000002 209.0624999999999 670.7812500000002C213.4999999999999 675.0625000000003 217.5624999999999 678.9375000000002 220.9999999999999 682.2812500000003L281.3437499999999 635.4375000000002L318.5625 606.6562500000003L360.125 628.5937500000003C375.2812499999999 636.4375000000003 391.2812499999999 643.1562500000003 407.5625 648.3125000000003L452.3437499999999 662.5937500000003L457.8437499999999 709.3125000000003C461.7812499999999 742.5312500000003 465.1249999999999 766.6562500000003 467.9062499999999 784.1562500000003H530.125zM572.21875 856.9375H427.65625C415.15625 856.9375 407.375 850.9375 404.21875 838.71875C398.5625 817.15625 392.28125 776.78125 385.28125 717.71875C365.0625 711.28125 345.21875 703 326.125 692.9375L236.1875 762.65625C230.625 766.9375 224.96875 769.21875 219.34375 769.21875C209.78125 769.21875 189.28125 753.71875 157.84375 722.65625C126.34375 691.59375 104.90625 668.3125 93.6875 652.71875C89.75 647 87.84375 642 87.84375 637.71875C87.84375 632.5 90.0625 627.28125 94.34375 622.0625C123.40625 586.84375 146.625 556.90625 164.0625 532.21875C153.21875 512.21875 144.78125 492.2812499999999 138.625 472.375L17.5624999999999 454.03125C12.7812499999999 453.1875000000001 8.7187499999999 450.375 5.1249999999999 445.53125C1.7812499999999 440.8125 -0.0312500000001 435.8125 -0.0312500000001 430.59375V286.03125C-0.0312500000001 280.375 1.7499999999999 275.3125 5.1874999999999 270.75C8.6874999999999 266.25 13.2499999999999 263.4687499999999 18.8437499999999 262.59375L138.0624999999999 245.0312499999999C144.1249999999999 223.7499999999999 153.0625 202.25 164.7187499999999 180.5937499999999C156.9374999999999 169.8124999999999 145.2187499999999 154.4374999999999 129.5624999999999 134.7499999999999C113.8437499999999 115.0937499999999 102.7812499999999 100.5937499999999 96.2812499999999 91.53125C92.8437499999999 86.75 91.0624999999999 81.75 91.0624999999999 76.53125C91.0624999999999 70.8125 92.4999999999999 65.8125 95.5624999999999 61.5312499999999C112.5624999999999 38.0937499999999 148.2812499999999 1.7499999999999 203.0624999999999 -47.75C207.7812499999999 -52.53125 213.2812499999999 -54.90625 219.3437499999999 -54.90625C225.78125 -54.90625 231.1875 -53.1250000000001 235.5624999999999 -49.1250000000001L327.34375 20.59375C345.0625 11.3749999999999 364.6875 3.53125 385.90625 -3.5625L404.125 -123.3437500000001C404.46875 -128.9062500000001 406.96875 -133.6250000000001 411.5625 -137.40625C416.125 -141.125 421.5 -142.84375 427.5 -142.84375H572.1562499999999C584.8125 -142.84375 592.4999999999999 -136.7812500000001 595.6562499999999 -124.6250000000001C601.2187499999999 -102.9062500000001 607.4999999999999 -62.6250000000001 614.4374999999999 -3.4687500000001C634.8749999999999 2.9687499999999 654.6562499999998 11.2499999999999 673.6562499999999 21.2499999999999L763.5937499999999 -49.0312500000001C769.5937499999999 -52.9687500000001 775.3749999999998 -54.8750000000001 780.5937499999999 -54.8750000000001C790.0937499999998 -54.8750000000001 810.4374999999998 -39.4375000000001 841.6562499999999 -8.6562500000001C872.9374999999999 22.1249999999999 894.4999999999999 45.5624999999999 906.2187499999998 61.6249999999999C910.0624999999998 65.9062499999999 912.0624999999998 70.9062499999999 912.0624999999998 76.6249999999999C912.0624999999998 82.2812499999999 909.8437499999998 87.6874999999998 905.4999999999998 92.8437499999998C874.2187499999998 130.9999999999998 851.0624999999999 160.9999999999998 835.8437499999999 182.6249999999999C844.6249999999999 198.7812499999998 852.9999999999999 218.4687499999998 861.1874999999999 241.8437499999998L981.6874999999998 260.0624999999998C986.9062499999998 260.9062499999998 991.2499999999998 263.7812499999998 994.7499999999998 268.6249999999998C998.2499999999998 273.3437499999998 999.9687499999998 278.3437499999998 999.9687499999998 283.6249999999998V427.9687499999999C999.9687499999998 433.6874999999998 998.2499999999998 438.6874999999999 994.8124999999998 443.3124999999998C991.3124999999998 447.8749999999999 986.6562499999998 450.5937499999998 981.0937499999998 451.4687499999998L861.8124999999999 469.6874999999998C855.3749999999999 490.5312499999998 846.5312499999999 511.7499999999998 835.1562499999998 533.4062499999998C842.9374999999998 544.3437499999998 854.7187499999999 559.6249999999998 870.3749999999998 579.3437499999998C886.0937499999998 599.0624999999998 897.0937499999998 613.4999999999998 903.5937499999998 622.5624999999998C906.9374999999998 627.4062499999998 908.8124999999998 632.4062499999998 908.8124999999998 637.6249999999998C908.8124999999998 643.6249999999998 907.1562499999998 648.3437499999998 904.2499999999998 651.8437499999998C888.5312499999998 674.0624999999998 852.6874999999998 710.9062499999998 796.6874999999998 762.5624999999998C791.4687499999998 766.8437499999998 786.0312499999998 769.0624999999998 780.4687499999998 769.0624999999998C773.9687499999999 769.0624999999998 768.6874999999999 767.1249999999998 764.7499999999998 763.3437499999998L672.3124999999999 693.6249999999998C654.5312499999999 702.7812499999998 634.8749999999999 710.7812499999998 613.6562499999999 717.7812499999998L595.5937499999999 837.6249999999998C595.1562499999999 843.1249999999998 592.7499999999999 847.9062499999998 588.1562499999999 851.4687499999998C583.4999999999999 855.2499999999998 578.1562499999999 856.9687499999998 572.1562499999999 856.9687499999998V856.9687499999998z M499.9375 460.84375C557.15625 460.84375 603.71875 414.28125 603.71875 357S557.28125 253.21875 499.9375 253.21875S396.21875 299.7812499999999 396.21875 357S442.71875 460.84375 499.9374999999999 460.84375zM499.9375 533.71875C402.28125 533.71875 323.21875 454.5625 323.21875 357S402.4375 180.28125 500 180.28125C597.65625 180.28125 676.78125 259.4375 676.78125 357S597.71875 533.71875 499.9375000000001 533.71875V533.71875z" />
    <glyph glyph-name="gears2"
      unicode="&#xE91A;"
      horiz-adv-x="1000" d=" M466.71875 357.28125C466.71875 394.0625 453.71875 425.5625 427.65625 451.5625S370.15625 490.625 333.3750000000001 490.625S265.09375 477.625 239.0937500000001 451.5625C213.0312500000001 425.5 200.0312500000001 394.0625 200.0312500000001 357.28125S213.0312500000001 288.9375 239.0937500000001 262.9375000000001C265.0937500000001 236.8750000000001 296.5937500000001 223.8750000000001 333.3750000000001 223.8750000000001S401.59375 236.8750000000001 427.65625 262.9375000000001S466.71875 320.5 466.71875 357.2812500000001zM866.65625 90.65625C866.65625 108.71875 860.09375 124.3125000000001 846.9375 137.4375C833.7187500000001 150.65625 818.0937500000001 157.15625 800.09375 157.15625C782.0312500000001 157.21875 766.3125000000001 150.59375 753.2500000000001 137.4375C740.0312500000001 124.2187500000001 733.4687500000001 108.5937500000001 733.4687500000001 90.65625C733.4687500000001 72.3125 740.0312500000001 56.5 753.1250000000001 43.5S781.8437500000002 23.84375 800.2812500000001 23.84375C818.5625000000002 23.84375 834.4375000000001 30.40625 847.4375000000002 43.5C860.2187500000001 56.4375 866.7187500000002 72.21875 866.7187500000002 90.65625zM866.65625 623.9375C866.65625 642 860.09375 657.65625 846.9375 670.78125C833.65625 683.9375 818.0937500000001 690.5625 800 690.625C781.9375000000001 690.625 766.2187500000001 683.96875 753.1562500000001 670.84375C739.9375000000001 657.625 733.3750000000001 641.90625 733.3750000000001 624C733.3750000000001 605.5625 739.9375000000001 589.84375 753.0312500000001 576.84375S781.7500000000001 557.28125 800.1875000000001 557.28125C818.4687500000002 557.28125 834.3437500000001 563.78125 847.3437500000002 576.84375C860.1875000000002 589.84375 866.6875000000001 605.5 866.6875000000001 623.90625zM666.71875 404.71875V308.28125C666.71875 304.78125 665.375 301.5 663.15625 298.125C660.65625 294.84375 657.8125 292.96875 654.71875 292.6875L573.9375 280.125C570 267.96875 564.59375 254.6875 557.28125 240.5625C569.0624999999999 223.90625 584.625 204 604.1249999999999 180.71875C606.4687499999999 177.2187500000001 607.7812499999999 173.78125 607.7812499999999 170.2812500000001C607.7812499999999 166.2187500000001 606.4375 162.7812500000001 604.1249999999999 160.34375C596.0624999999999 149.90625 581.7812499999999 134.4062500000001 561.1249999999999 113.6875000000001C540.4062499999999 93.03125 526.7812499999999 82.7500000000001 520.2812499999999 82.7500000000001C516.5 82.7500000000001 512.8437499999999 83.9687500000001 509.3437499999999 86.3125000000001L449.4999999999999 133.1562500000001C436.6562499999999 126.5937500000001 423.2812499999999 121.2187500000001 409.3437499999999 117.0000000000001C405.5624999999999 79.5000000000001 401.4999999999999 52.5625000000001 397.3437499999999 36.2812500000001C394.9062499999999 27.9375000000001 389.6874999999999 23.71875 381.6874999999999 23.71875H284.8437499999999C281.0624999999999 23.71875 277.5624999999999 25.0625 274.3437499999999 27.71875C271.2812499999999 30.375 269.4999999999999 33.3750000000001 269.1249999999999 36.9375000000001L257.1249999999999 116.7187500000001C245.3437499999999 120.21875 232.2812499999999 125.5625000000001 218.0624999999999 132.8750000000001L156.7187499999999 86.2187500000001C154.2812499999999 83.7812500000001 150.7812499999999 82.6562500000001 146.2812499999999 82.6562500000001C142.4999999999999 82.6562500000001 138.8437499999999 84.0000000000001 135.3437499999999 86.7187500000001C85.3437499999999 132.9375000000001 60.3437499999999 160.6562500000001 60.3437499999999 170.0625C60.3437499999999 173.125 61.6249999999999 176.5 63.9999999999999 179.9062500000001C67.4999999999999 184.7500000000001 74.5624999999999 193.96875 85.3437499999999 207.5625000000001C96.1874999999999 221.0625000000001 104.3437499999999 231.7187500000001 109.9999999999999 239.3437500000001C101.8437499999999 254.6250000000001 95.8437499999999 268.9062500000001 91.6562499999999 282.0625000000001L12.4999999999999 294.5625000000001C8.9999999999999 294.90625 6.0624999999999 296.5625000000001 3.5624999999999 299.5625000000001C1.2187499999999 302.5625000000001 -1e-13 305.8437500000001 -1e-13 309.7187500000001V406.1562500000001C-1e-13 409.6562500000001 1.2812499999999 413.0000000000001 3.6562499999999 416.3125000000001C6.0937499999999 419.5937500000001 8.8749999999999 421.46875 11.9999999999999 421.8125000000001L92.7812499999999 434.375C96.5624999999999 446.53125 102.1249999999999 459.65625 109.4374999999999 473.9375C97.5937499999999 490.59375 81.9374999999999 510.5 62.4374999999999 533.78125C59.9999999999999 537.5625 58.8749999999999 541.0625 58.8749999999999 544.21875C58.8749999999999 548.28125 60.0937499999999 551.875 62.5312499999999 554.65625C70.1874999999999 565.09375 84.3749999999999 580.5 105.1874999999999 600.9375C125.9687499999999 621.4375 139.7499999999999 631.71875 146.4062499999999 631.71875C150.1874999999999 631.71875 153.8437499999999 630.4375 157.3437499999999 628.0625L217.1874999999999 581.125C228.9687499999999 587.34375 242.3437499999999 592.84375 257.2499999999999 597.78125C261.0937499999999 635.34375 265.0937499999999 662 269.2499999999999 678C271.7499999999999 686.34375 276.9687499999999 690.5625 284.9062499999999 690.5625H381.7499999999999C385.5937499999999 690.5625 389.0312499999999 689.21875 392.1874999999999 686.625S397.0312499999999 680.96875 397.4687499999999 677.46875L409.4062499999999 597.7499999999999C421.1874999999999 594.2499999999999 434.1874999999999 588.90625 448.4687499999999 581.59375L509.9062499999999 627.9375C512.6874999999999 630.375 516.125 631.59375 520.3437499999999 631.59375C524.1874999999999 631.59375 527.7812499999999 630.25 531.2812499999999 627.4375C581.28125 581.28125 606.2812499999999 553.5 606.2812499999999 544.09375C606.2812499999999 541.03125 604.9374999999999 537.65625 602.4999999999999 534.25C598.4999999999999 528.6875 591.1562499999999 519.3125 580.8437499999999 506.0937499999999C570.3437499999999 492.8749999999999 562.5624999999999 482.4375 557.1874999999999 474.8749999999999C565.1249999999999 458.2187499999999 571.0312499999999 443.9375 574.9062499999999 432.15625L654.1249999999999 420.21875C657.6249999999998 419.5 660.4062499999999 417.6562499999999 662.9062499999998 414.71875C665.3437499999998 411.71875 666.4687499999999 408.375 666.4687499999999 404.5625C666.4687499999999 404.5625 666.7499999999999 404.5625 666.7499999999999 404.5625zM1000 127V54.15625C1000 48.5 974.15625 43.15625 922.34375 37.875C918.28125 28.59375 913 19.4375 906.78125 10.8125C924.4375 -28.40625 933.34375 -52.40625 933.34375 -61.03125C933.34375 -62.3749999999999 932.6875 -63.59375 931.34375 -64.6875C888.90625 -89.40625 867.40625 -101.6875 866.6875 -101.6875C863.9687500000001 -101.6875 856.03125 -93.53125 842.84375 -77.34375C829.625 -60.8437500000001 820.5625 -49.1250000000001 815.625 -41.84375C808.6875 -42.5625 803.5625000000001 -42.90625 800.0625 -42.90625S791.28125 -42.5625 784.34375 -41.84375C779.625 -49.1250000000001 770.5625 -60.90625 757.28125 -77.34375C744.125 -93.5625 736.125 -101.6875 733.28125 -101.6875C732.625 -101.6875 711.125 -89.46875 668.78125 -64.6875C667.4375 -63.625 666.71875 -62.40625 666.71875 -61.03125C666.71875 -52.3749999999999 675.6562500000001 -28.3125 693.2812500000001 10.8125C687.0625 19.46875 681.7812500000001 28.4687500000001 677.71875 37.875C625.9375 43.21875 600.0000000000001 48.59375 600.0000000000001 54.15625V127C600.0000000000001 132.5625 625.9375 138 677.6562500000001 143.0625C682.15625 153.125 687.3125000000001 162.28125 693.2187500000001 170.28125C675.6562500000001 209.4999999999999 666.6562500000001 233.4375 666.6562500000001 242.1249999999999C666.6562500000001 243.4687499999999 667.375 244.6875 668.71875 245.8437499999999C670.0625 246.5 676.15625 249.9062499999999 687 256.1874999999999C697.6562500000001 262.40625 707.9375000000001 268.3437499999999 717.5625000000001 273.9062499999999C727.3437500000001 279.4062499999999 732.5000000000001 282.2499999999999 733.2812500000001 282.2499999999999C736.0000000000001 282.2499999999999 744.0000000000001 274.1874999999999 757.1250000000001 258.03125C770.3437500000001 241.875 779.4687500000001 230.25 784.3437500000001 222.875C791.2812500000001 223.5937499999999 796.5000000000001 223.875 799.9062500000001 223.875C803.4062500000001 223.875 808.6875000000001 223.5937499999999 815.4687500000002 222.875C833.2500000000001 247.4375 849.2500000000002 266.9375 863.5312500000002 281.21875L866.5937500000001 282.21875C867.9375000000001 282.21875 889.5312500000001 270.15625 931.1562500000002 245.78125C932.5000000000002 244.71875 933.1562500000002 243.5 933.1562500000002 242.0625C933.1562500000002 233.34375 924.2187500000002 209.40625 906.5937500000002 170.28125C912.5937500000002 162.21875 917.6562500000002 153.2812499999999 922.1562500000002 143.125C974.1562500000002 137.96875 999.9375000000002 132.4687499999999 999.9375000000002 126.90625V126.90625zM1000 660.4375V587.5C1000 581.9375 974.15625 576.5625 922.34375 571.34375C918.28125 561.90625 913 552.90625 906.78125 544.28125C924.4375 505 933.34375 481.0625 933.34375 472.34375C933.34375 471.0000000000001 932.6875 469.78125 931.34375 468.6875C888.90625 444.03125 867.40625 431.6875 866.6875 431.6875C863.9687500000001 431.6875 856.03125 439.84375 842.84375 456.25C829.625 472.5312500000001 820.5625 484.3125 815.625 491.6875C808.6875 490.96875 803.5625000000001 490.6875 800.0625 490.6875S791.28125 490.96875 784.34375 491.6875C779.625 484.40625 770.5625 472.6250000000001 757.28125 456.25C744.125 439.90625 736.125 431.6875 733.28125 431.6875C732.625 431.6875 711.125 443.9687500000001 668.78125 468.6875C667.4375 469.84375 666.71875 470.96875 666.71875 472.34375C666.71875 481.0625 675.6562500000001 505 693.2812500000001 544.28125C687.0625 552.9375 681.7812500000001 561.9375 677.71875 571.34375C626 576.5625 600.0625 581.90625 600.0625 587.5V660.4375C600.0625 666 626 671.375 677.71875 676.59375C682.21875 686.65625 687.3750000000001 695.75 693.2812500000001 703.65625C675.71875 742.875 666.71875 766.875 666.71875 775.5C666.71875 776.84375 667.4375 778.15625 668.78125 779.15625C670.125 779.875 676.21875 783.3125 687.0625 789.65625C697.71875 795.875 708.0000000000001 801.8125 717.6250000000001 807.375C727.40625 812.875 732.5625000000001 815.71875 733.3437500000001 815.71875C736.0625000000001 815.71875 744.0625000000001 807.65625 757.1875000000001 791.5C770.4062500000001 775.4375 779.5312500000001 763.65625 784.4062500000001 756.34375C791.3437500000001 757.0625 796.5625000000001 757.40625 799.9687500000001 757.40625C803.4687500000001 757.40625 808.7500000000001 757.0625 815.5312500000001 756.34375C833.3125000000001 781 849.3125000000001 800.40625 863.5937500000001 814.625L866.6562500000001 815.6875C868.0000000000001 815.6875 889.5937500000002 803.53125 931.2187500000002 779.1875C932.5625000000002 778.125 933.2187500000002 776.90625 933.2187500000002 775.53125C933.2187500000002 766.8125 924.28125 742.875 906.65625 703.6875C912.6562500000002 695.75 917.71875 686.6875 922.2187500000002 676.625C974.15625 671.34375 999.9375000000002 665.90625 999.9375000000002 660.40625V660.40625z" />
    <glyph glyph-name="globe2"
      unicode="&#xE91B;"
      horiz-adv-x="1000" d=" M880.9375 680.4375C867.375 696.4375 852.65625 711.28125 837.15625 725.4375C791.4375 767.28125 738 800.71875 679.09375 823.375C650.375 834.4375 620.5312500000001 842.9375 589.5312500000001 848.59375C560.4687500000001 853.875 530.6875000000001 857.03125 500.0312500000001 857.03125C468.8750000000001 857.03125 438.46875 853.8125 408.8750000000001 848.3125C377.3125000000001 842.53125 346.8750000000001 833.65625 317.7187500000001 822.25C260.0000000000001 799.59375 207.7187500000001 766.59375 162.7812500000001 725.46875C147.3437500000001 711.3125 132.6250000000001 696.40625 119.0625000000001 680.46875C44.90625 593.25 0 480.4687499999999 0 357.03125C0 229.03125 48.5 112.59375 127.5625 24.1875C141.5 8.625 156.34375 -6.15625 172.125 -19.875C214.90625 -57.0937499999999 263.9687500000001 -87.09375 317.6250000000001 -108.1562499999999C346.7812500000001 -119.5937499999999 377.1875000000001 -128.4375 408.7812500000001 -134.2187499999999C438.4375000000001 -139.7187499999999 468.8437500000001 -142.9374999999999 500 -142.9374999999999C530.65625 -142.9374999999999 560.4375 -139.78125 589.5625 -134.4999999999999C620.5625 -128.8437499999999 650.40625 -120.34375 679.125 -109.34375C734.0625 -88.1875 784.1875 -57.84375 827.84375 -19.90625C843.625 -6.1875 858.40625 8.59375 872.4062499999999 24.15625C951.46875 112.65625 999.96875 229.09375 999.96875 357.09375C999.96875 480.53125 955.03125 593.3125 880.90625 680.53125zM408.84375 784.78125C414.5625 786 420.40625 786.78125 426.1875 787.78125C423.34375 786.0625 420.46875 784.28125 417.53125 782.5625C356.5937500000001 745 304.0312500000001 695.21875 264.09375 635.90625C243.5937500000001 649.125 224.375 664.0625 206.375 680.40625C262.59375 731.46875 331.8750000000001 768.40625 408.8125 784.75zM162.78125 635.4375C184.5 615.5 207.84375 597.5 232.84375 581.65625C203.1875 522.875 185 457.5000000000001 180.6875 388.3125H64.03125C70.6875 481.75 106.375 567.3125 162.75 635.46875zM64.0625 325.71875H180.71875C185.375 250.78125 205.9375 180.21875 240 117.78125C216 103.1249999999999 193.28125 86.625 172.15625 68.21875C110.65625 138.0625 71.09375 227.375 64.09375 325.7187500000001zM408.84375 -70.78125C336.625 -55.4375 271.0625 -22.0625 216.78125 24.15625C234.5625 39.3125 253.71875 52.875 273.7812500000001 65.09375C312.4375000000001 11.59375 361.28125 -33.84375 417.5625000000001 -68.5625000000001C420.4062500000001 -70.34375 423.2812500000001 -72.0625 426.1250000000001 -73.7812500000001C420.4062500000001 -72.7812500000001 414.5625000000001 -72.0000000000001 408.8437500000001 -70.7812500000001zM468.71875 -26.34375C414.2812500000001 3.65625 367.2187500000001 45.15625 330 94.5C373.15625 112.71875 419.84375 123.84375 468.71875 127.28125V-26.375zM468.71875 189.71875C407.2812500000001 185.9375 348.8750000000001 171.28125 295.3750000000001 147.21875C265.9375000000001 200.8749999999999 247.8125000000001 261.4375 243.2187500000001 325.71875H468.7187500000001V189.71875zM468.71875 388.28125H243.21875C247.375 446.5625 263 501.71875 287.875 551.5625C343.375 525.5 404.375 509.4062499999999 468.7187499999999 505.4062499999999V388.25zM468.71875 567.9375C415.9375 571.65625 365.7187500000001 584.78125 319.6562500000001 605.71875C358.2187500000001 661.28125 409.21875 707.5625 468.71875 740.375V567.9375zM837.21875 635.4375C893.5625 567.28125 929.2812500000002 481.71875 935.9375 388.2812500000001H816.1562499999999C811.8749999999999 457.0000000000001 793.9375 521.78125 764.7187499999999 580.21875C790.5624999999999 596.375 814.7812499999999 614.875 837.2187499999999 635.4375zM589.5625 785.21875C667.125 769 736.90625 731.875 793.5625 680.4375C774.9062499999999 663.5 754.9062499999999 648.15625 733.5624999999999 634.59375C693.4999999999999 694.4375 640.7187499999999 744.8125 579.2812499999999 782.59375C576.0624999999998 784.53125 572.8437499999999 786.53125 569.5624999999999 788.4375C576.2812499999999 787.375 582.9999999999999 786.59375 589.5624999999999 785.21875zM531.28125 738.4375C589.84375 705.5 640.0625 659.65625 678.0625 604.59375C632.625 584.25 583.21875 571.65625 531.28125 567.9375V738.4375zM531.28125 505.4375C594.7187500000001 509.375 654.7812500000001 524.9375 709.5625000000001 550.375C734.1250000000001 500.8750000000001 749.5 446.1562500000001 753.6250000000001 388.3125H531.2812500000001V505.4687500000001zM531.28125 325.71875H753.625C749.0625 261.9375 731.28125 201.71875 702.1875 148.3749999999999C649.34375 171.8124999999999 591.75 186.0312499999999 531.25 189.71875V325.71875zM531.28125 127.21875C579.21875 123.78125 625.0625000000001 113 667.5 95.28125C630.9374999999999 46.5 584.65625 5.5 531.2812499999999 -24.5V127.2187500000001zM589.5625 -71.21875C583 -72.5625 576.21875 -73.375 569.5625 -74.4375C572.84375 -72.5 576.0624999999999 -70.5 579.28125 -68.59375C636.0625 -33.59375 685.3437499999999 12.25 724.0624999999999 66.3437499999999C744.90625 53.84375 764.78125 39.84375 783.21875 24.125C728.4999999999999 -22.4375 662.4375 -56.0312500000001 589.5625 -71.2187500000001zM827.78125 68.28125C806 87.28125 782.5 104.2187499999999 757.5625 119.28125C791.1250000000001 181.34375 811.40625 251.4375 816.0625 325.78125H935.8437500000002C928.90625 227.3437500000001 889.3437500000001 138.0625 827.7812500000001 68.2812500000001z" />
    </font>
</defs>
</svg>
